<svg xmlns="http://www.w3.org/2000/svg"><defs><font id="FontAwesome5Brands-Regular" horiz-adv-x="448"><font-face font-family="Font Awesome 5 Brands Regular" font-weight="400" units-per-em="512" panose-1="2 0 5 3 0 0 0 0 0 0" ascent="448" descent="-64" bbox="-0.200195 -66.9505 641.5 448.3" underline-thickness="25" underline-position="-50" unicode-range="U+0020-F8E8"/><glyph glyph-name="firefox-browser" unicode="" horiz-adv-x="512" d="M130.63 324.51c.16-.01.08-.01 0 0m351.42-45.35c15.28-36.76 20.67-80.748 15.821-122.578-.37-3.15-.7-6.29-1.11-9.41-19.61-115.04-119.79-202.62-240.43-202.62-134.71 0-243.92 109.19-243.92 243.89v1.24c.15 2.71.31 5.41.49 8.12.05.24.05.48.05.72.44 6.29.87 10.31 1.44 14q.36 2.87.78 5.74c1.67 12.27 3.94 22.21 4 22.48 5.992 26.88 17.351 52.108 32.73 73.9a212.7 212.7 0 0 0 22.77 27.33 177.4 177.4 0 0 0 23.84 20.43c.93.63 8.03 4.84 8.15 4.31-.57-8.43-1.24-48.83 8.43-61.08h.12c14.16 15.92 33.65 33.96 58.71 45.37a112.6 112.6 0 0 1-3.649-28.534c0-10.783 1.514-21.216 4.34-31.096a69 69 0 0 0 6.309-4.77c3.72-3.15 7.92-7.35 16.77-16.06 16.55-16.31 59-33.18 59.09-35.18-.4-6.08-21.83-27-29.33-27-69.37 0-80.62-41.95-80.62-41.95 3.07-35.33 27.67-64.41 57.51-79.75 1.36-.73 2.74-1.37 4.12-2a140 140 0 0 1 7.16-2.93 108.6 108.6 0 0 1 31.74-6.12c121.57-5.7 145.13 145.34 57.39 189.199 22.47 3.91 45.82-5.13 58.82-14.28-10.374 18.11-24.941 33.167-42.66 44.13q-1.49.93-3 1.8-2.34 1.37-4.74 2.63a153 153 0 0 1-7.251 3.48c-1.07.47-2.16.91-3.25 1.35-1.34.58-2.69 1.08-4.05 1.58-1.86.67-3.73 1.299-5.62 1.87-.68.21-1.33.429-2 .63a122.3 122.3 0 0 1-35.05 4.82c-2-.021-4-.101-6-.221l-1.42-.1a118.2 118.2 0 0 1-42.11-11l-.52-.21a6.1 6.1 0 0 0-1.996-.336 6.135 6.135 0 0 0-5.794 4.126 6.2 6.2 0 0 0-.389 2.148 6.25 6.25 0 0 0 3.479 5.602 130.4 130.4 0 0 0 48.33 12.33c5.78 35.4 28.27 91.01 82.5 122.78l-.1-.14.18.1.12.07a.9.9 0 0 0 .46 0 .63.63 0 0 0 .55-.624v-.036a45 45 0 0 1 3.64-9.62c.83-1.71 1.69-3.4 2.69-5.05 1.88-3.22 3.81-6.28 5.74-9.33 38.2-60.36 84.97-88.08 112.55-156.83-.05.27-.05.41-.05.41-3.03 20.12-10.98 47.11-24.7 74 16.86-8.73 38.33-36.23 48.94-61.73"/><glyph glyph-name="ideal" unicode="" horiz-adv-x="576" d="M125.61 282.52c27.071-.01 49.049-21.987 49.06-49.06v-.01c0-27.082-21.988-49.07-49.07-49.07s-49.07 21.988-49.07 49.07 21.987 49.07 49.07 49.07zM86.15 22.16v140.52h78.94V22.16zm151.46 211.6c0-20.45-8.99-23.26-18.74-23.26h-14.05v45.79h14.05c8.74 0 18.74-2.53 18.74-22.53m201.69-46h57.09c-1.78-98.48-52.11-165.64-196.72-165.64h-94.83v165.62h14c25.98 0 41.5 17.19 41.5 46 0 27.91-15.9 45.26-41.5 45.26h-14v82.81h94.83c88.94 0 186.83-26.89 196.07-151.31h-33.69v68.57H439.3zm-109.75 0-.04 22.74H296V223h30v22.69h-30v10.58h31.73V279H273.3v-91.24zm74.66 0 23.67-.02-27.53 91.34H368l-27.53-91.32h23.66l5.18 17.67h29.74zM299.65 416c218.35 0 250.97-140 251-223.48C550.65 47.731 461.5-32 299.65-32H32v448zm0-426.92c148.899 0 229.899 69.35 229.899 203.44 0 137.8-87.8 202.41-229.899 202.41H53.07V-10.92zm83.86 264.85h1.37l7.52-25.81H376z"/><glyph glyph-name="microblog" unicode="" d="m399.36 85.77.15.06c-13.544-15.34-21.744-35.597-21.744-57.65 0-19.956 6.735-38.354 18.054-53.04a4.35 4.35 0 0 0 .85-3.62 4.424 4.424 0 0 0-5.22-3.43c-32.28 7.18-61.31 24.83-79.89 49.92a7.16 7.16 0 0 1-5.8 2.944 7.2 7.2 0 0 1-2.32-.384 239 239 0 0 0-79.059-13.44H224C101.14 7.13 1.54 98.61 1.54 211.56S101.14 416 224 416s222.46-91.49 222.46-204.44c0-47.45-17.61-91.1-47.1-125.79M329.52 235.6c1.567 1.187 2.573 3.035 2.573 5.15a6.503 6.503 0 0 1-6.453 6.5l-71.88 1.51-23.66 67.92c-.883 2.542-3.297 4.37-6.138 4.37s-5.258-1.828-6.141-4.37l-23.66-67.92-71.88-1.51c-3.53-.067-6.381-2.95-6.381-6.496a6.49 6.49 0 0 1 2.58-5.183l57.3-43.49-20.79-68.86a6.5 6.5 0 0 1-.269-1.872 6.513 6.513 0 0 1 6.51-6.51c1.378 0 2.657.43 3.71 1.161L224 157.08l59.059-41.05a6.5 6.5 0 0 1 3.72-1.17 6.503 6.503 0 0 1 6.22 8.39l-20.78 68.86z"/><glyph glyph-name="pied-piper-square" unicode="" d="M32 29 0-31.2l.8 328C.8 362.7 54 416 120 416h327.2c-93-28.9-189.9-94.2-253.9-168.6C122.7 166 82.6 110 32 29m416 387s0-328.8.1-328.8C448.1 21.3 394.8-32 328.8-32H.4C18.9-6.5 62.1 22 85.3 34c35.5 18.1 76.4 28.5 105.3 56.3 42.1 40.5 47.8 105 71 158.6C305.2 349.2 448 416 448 416"/><glyph glyph-name="unity" unicode="" horiz-adv-x="576" d="m498.11 241.6-30-49.6 30-49.63-52.8-191.62L248.23 2.11l-29.24 50-59.17-.43L15.54 192 159.8 332.29l59.2-.43 29.2 50.06 197.11 51.36zm-274.34 82.2L114.871 215.67h173.13l86.55 145.82zm0-263.63 150.78-37.69L288 168.29H114.87zm193-14L458.56 192l-41.81 145.84L330.17 192z"/><glyph glyph-name="dailymotion" unicode="" d="M298.93 181a44.03 44.03 0 0 0 16.973-17 47.1 47.1 0 0 0 6.1-23.186v-.284q-.052-20.49-13.66-34.27c-13.609-13.78-20.444-13.78-34.111-13.78q-20.15 0-33.431 13.44c-13.281 13.44-13.28 20.493-13.28 34.6q0 20.15 13.61 33.42c13.61 13.27 20.22 13.27 33.44 13.27.214.003.47-.026.685-.026A48.14 48.14 0 0 0 298.93 181M.002 416h448V-32h-448zm374.71-373.26-.03 264.35-55.79-12.09v-77.92q-11.72 11.79-25 17a80.7 80.7 0 0 1-29.74 5.21q-26.54-.01-47.72-13.1a89.67 89.67 0 0 1-32.93-35.78q-11.76-22.659-11.76-50.22-.01-28.21 11.59-50.89a88.07 88.07 0 0 1 32.94-35.77q21.33-13.1 48.89-13.1 39.99 0 55.78 26.2h.67V42.74z"/><glyph glyph-name="instagram-square" unicode="" d="M224 245.34c29.439-.01 53.338-23.904 53.36-53.34 0-29.44-23.9-53.34-53.34-53.34s-53.34 23.9-53.34 53.34c0 29.433 23.89 53.33 53.32 53.34m124.71 41c8.35-21.07 6.47-71.06 6.47-94.34s1.92-73.33-6.43-94.33a54.05 54.05 0 0 0-30.41-30.41c-21.06-8.36-70.99-6.43-94.3-6.43s-73.31-1.86-94.31 6.43a54.05 54.05 0 0 0-30.41 30.41c-8.32 21.07-6.47 71.06-6.47 94.34s-1.85 73.33 6.43 94.33a54.05 54.05 0 0 0 30.41 30.41c21.06 8.36 71.01 6.43 94.31 6.43s73.3 1.86 94.3-6.43a54.05 54.05 0 0 0 30.41-30.41M224 110l.1-.002c45.202 0 81.9 36.698 81.9 81.9V192c0 45.257-36.743 82-82 82s-82-36.743-82-82 36.743-82 82-82m85.38 148.3c10.537.006 19.13 8.52 19.13 19.059v.082c0 10.563-8.576 19.14-19.14 19.14s-19.14-8.577-19.14-19.14c0-10.565 8.576-19.141 19.14-19.141zM400 416c26.492 0 48-21.508 48-48V16c0-26.492-21.508-48-48-48H48C21.508-32 0-10.492 0 16v352c0 26.492 21.508 48 48 48zm-17.12-290c1.49 26.44 1.49 105.56 0 131.88-1.22 25.63-7.18 48.35-25.85 67.05s-41.37 24.56-67 25.85c-26.41 1.49-105.59 1.49-132 0-25.53-1.22-48.22-7.12-67-25.78s-24.56-41.37-25.85-67c-1.49-26.39-1.49-105.58 0-132 1.22-25.58 7.11-48.3 25.85-67s41.37-24.56 67-25.85c26.41-1.49 105.59-1.49 132 0 25.6 1.22 48.29 7.19 67 25.85s24.56 41.37 25.85 67"/><glyph glyph-name="mixer" unicode="" horiz-adv-x="512" d="m114.57 371.93 128.319-172.399a12.15 12.15 0 0 0 2.298-7.126 12.08 12.08 0 0 0-2.298-7.104L113.999 12.06C105.663.878 92.341-6.327 77.333-6.327c-11.877 0-22.703 4.54-30.834 11.978-17.85 16.18-18.97 43.52-4.74 62.77l92.33 124.15-91.78 123c-14.25 19.25-12.83 46.59 4.75 62.77 8.132 7.44 18.955 12.026 30.835 12.026 15.01 0 28.34-7.25 36.675-18.437zM470.24 68.42c14.23-19.25 13.11-46.59-4.73-62.77-8.132-7.441-18.956-12.026-30.835-12.026-15.01 0-28.34 7.25-36.675 18.435l-128.57 173.5a12.15 12.15 0 0 0-2.297 7.126c0 2.653.852 5.107 2.297 7.105l128 172.12c8.336 11.185 21.66 18.393 36.67 18.393 11.88 0 22.708-4.542 30.84-11.983 17.58-16.18 18.97-43.52 4.75-62.77l-91.78-123z"/><glyph glyph-name="shopify" unicode="" d="M388.32 343.9c.4-2.4 54.44-367.9 54.44-367.9L317.07-55.2v432.73c8.01-8.01 29.62-28.83 29.62-28.83s35.23-.8 37.23-.8a4.674 4.674 0 0 0 4.4-4m-99.67 33.63c9.21 2.8 13.36 4.19 14.81 4.4s2.906.343 4.4.4V-56L5.28-3.52s36.8 281.82 38 291.82c1.59 13.2 2 13.6 16 18 .4.4 19.61 6.41 47.23 14.81 2.82 21.22 13.21 48.44 26.82 70.06C152.58 422 176.58 439.2 200.58 440c12.42.37 22.82-3.63 30.82-12.4.4-.8 1.2-1.2 1.6-2a14.8 14.8 0 0 0 4 .4c18.42 0 34-10.85 44.44-30.86a117.4 117.4 0 0 0 7.21-17.61m-55.24-17.22c.4 13.21-1.2 32.83-8.01 47.2-6.8-3.2-12.81-8.41-17.21-12.81-11.21-12.37-20.82-31.18-25.62-50 17.21 5.21 34.84 10.81 50.84 15.61m-32.83 63.25c-36.83-.8-69.25-58.84-78.01-97.23 13.17 4 27.58 8.4 42 12.81 4.8 24.45 16.41 50.03 31.62 66.45 6 6 12.41 11.21 18.81 14.41a27.4 27.4 0 0 1-14.42 3.56m-46.43-220.17c-.4 4.81 0 23.61 29.62 25.62 20.42 1.6 37.63-6.4 37.63-6.4l15.21 57.6s-13.23 6.41-39.23 4.81c-67.25-4.41-97.67-51.24-94.47-97.68 3.6-55.24 58.84-53.24 60.84-86.86.41-8.01-4.81-19.62-18.81-20.42-21.62-1.6-48.44 18.82-48.44 18.82l-10.4-44s26.82-28.82 75.65-25.62c40.43 2.41 68.45 34.83 65.65 82.47-4 60.44-71.65 66.05-73.25 91.66m95.27 161.73q13.21 4.2 24.02 7.2c-4.01 12.43-12.81 32.83-31.23 36.43 5.61-14.41 7.21-31.63 7.21-43.63"/><glyph glyph-name="deezer" unicode="" horiz-adv-x="576" d="M451.46 203.29V276H576v-72.71zm0 173.89H576v-72.67H451.46zm0-275.06v72.68H576v-72.68zM0 .91v72.67h124.54V.91zm150.47 0v72.67H275V.91zm150.52 0 .01 72.67h124.53V.91zm150.47 0v72.67H576V.91zM301 102.12v72.68h124.53v-72.68zm-150.52 0-.01 72.68H275v-72.68zm0 101.17-.01 72.71H275v-72.71z"/><glyph glyph-name="edge-legacy" unicode="" horiz-adv-x="512" d="m25.71 219.84.35.48c0-.16 0-.32-.07-.48zm460.58-15.51v-52.07H172.21C173.6 23.77 363.6 28.2 444.47 84.69V-19.74c-47.36-28.53-156.779-53.17-240.13-21.33-70.62 27.16-119.92 100.55-120.75 172-1.1 92.22 45.7 153.42 120.75 188.32-15.79-19.93-27.97-41.54-34.34-78.93h175.85c10.25 105-99.42 105-99.42 105-103.3-3.62-177.949-63.69-220.37-125C40.62 334.79 119 440.28 258.89 440c85.02 0 157.61-39.88 198.591-113.27 21.05-37.94 28.81-78.4 28.81-122.4z"/><glyph glyph-name="google-pay" unicode="" horiz-adv-x="640" d="M105.72 233h99.66a133 133 0 0 0 1.75-21.563v-.217c0-32.76-11.41-60.3-31.41-78.91-17.45-16.38-41.53-25.91-70-25.91-41.453.104-77.26 24.087-94.38 59v.15C4.124 180 .063 196.507.063 213.744s4.061 33.535 11.277 47.986c17.117 34.936 52.92 58.95 94.38 59.11.345.004.7.006 1.045.006 27 0 51.547-10.593 69.705-27.846l-30.28-30.62c-10.177 9.955-24.093 16.09-39.44 16.09q-.536 0-1.07-.01c-27.6 0-50.93-18.91-59.3-44.37-2.12-6.449-3.268-13.355-3.268-20.51s1.147-14.042 3.268-20.49c8.37-25.31 31.7-44.22 59.3-44.22 14.28 0 26.46 3.73 36 10.28a49.68 49.68 0 0 1 21.14 32.6h-57.1zm389.41 4c10.13-9.34 15.12-22.45 15.05-39v-78.7h-22.61v17.72h-1c-9.79-14.59-22.71-21.89-39-21.89-13.79 0-25.54 4.17-34.79 12.51-8.55 7.292-13.954 18.114-13.954 30.22q0 .527.014 1.05c0 13.25 4.98 23.67 14.82 31.56s23.05 11.77 39.49 11.77c14.09 0 25.54-2.68 34.64-7.75V200c-.005 8.475-3.75 16.072-9.69 21.23a33.96 33.96 0 0 1-22.75 8.79q-19.809 0-31.26-17l-20.85 13.26c11.16 16.52 28.04 24.86 50.5 24.86 17.46 0 31.26-4.76 41.39-14.14m-19.23-89.3c7.78 7.45 11.74 16.23 11.74 26.36-7.34 5.94-17.64 8.94-30.8 8.78-9.54 0-17.75-2.39-24.07-7s-9.54-10.42-9.54-17.42c0-.033-.016-.055-.016-.088 0-6.355 3.06-12 7.786-15.542a28.53 28.53 0 0 1 18.33-6.25c10.396.013 19.807 4.28 26.57 11.16m-93.65 142c10.427-9.922 16.91-23.91 16.91-39.425 0-14.166-5.42-27.075-14.3-36.765-.89-.89-1.77-1.79-2.65-2.68-11.01-10.57-24.51-15.93-40.51-15.93h-39v-75.64h-23.63V306h62.67c.38.007.75.018 1.131.018 15.37 0 29.295-6.238 39.379-16.318m-16.58-62.23a33.2 33.2 0 0 1 9.032 22.794c0 9.182-3.737 17.496-9.772 23.506-5.78 5.708-13.724 9.23-22.482 9.23H302.7v-65.21h39.63c.328-.01.64-.025.97-.025 8.821 0 16.776 3.733 22.37 9.705M614.31 247H640L561 63.13h-24.35L566 127.45 514.21 247h25.69l37.42-91.7h.45z"/><glyph glyph-name="rust" unicode="" horiz-adv-x="512" d="M508.52 198.25c2.094-1.296 3.44-3.604 3.44-6.245a7.35 7.35 0 0 0-3.49-6.255l-21.82-13.51a278 278 0 0 0-.55-5.87l18.72-17.5a7.32 7.32 0 0 0 2.333-5.365c0-3.15-1.986-5.84-4.773-6.885l-24-9c-.54-1.89-1.08-3.78-1.67-5.65l15-20.83a7.33 7.33 0 0 0 1.373-4.286c0-3.652-2.67-6.685-6.163-7.254l-25.42-4.15c-.9-1.72-1.79-3.45-2.73-5.15l10.68-23.42a7.4 7.4 0 0 0 .656-3.052 7.3 7.3 0 0 0-1.235-4.078 7.2 7.2 0 0 0-6.37-3.26l-25.82.91a209 209 0 0 0-3.61-4.4L439 17.84a7.3 7.3 0 0 0 .196-1.672A7.363 7.363 0 0 0 430.16 9l-25.15 5.93a339 339 0 0 0-4.4-3.61l.91-25.82c.003-.088-.002-.168-.002-.257a7.353 7.353 0 0 0-10.389-6.693l-23.42 10.68c-1.7-.94-3.43-1.83-5.15-2.73l-4.15-25.42a7.356 7.356 0 0 0-7.252-6.163c-1.6 0-3.081.513-4.287 1.383l-20.82 15c-1.87-.6-3.76-1.13-5.65-1.68l-9-24a7.36 7.36 0 0 0-6.886-4.763 7.34 7.34 0 0 0-5.364 2.323l-17.5 18.73c-1.95-.22-3.88-.39-5.88-.56l-13.51-21.82c-1.297-2.093-3.604-3.49-6.246-3.49s-4.959 1.397-6.255 3.49l-13.51 21.82c-1.96.17-3.93.34-5.88.55l-17.5-18.72a7.33 7.33 0 0 0-5.36-2.325 7.37 7.37 0 0 0-6.89 4.765l-9 24c-1.889.55-3.79 1.08-5.65 1.68l-20.83-15a7.32 7.32 0 0 0-4.294-1.38 7.35 7.35 0 0 0-7.246 6.16l-4.15 25.42c-1.719.9-3.45 1.79-5.14 2.73l-23.43-10.68a7.4 7.4 0 0 0-3.045-.664 7.353 7.353 0 0 0-7.344 7.614l.92 25.82a229 229 0 0 0-4.41 3.61L81.84 9a7.3 7.3 0 0 0-1.673-.196A7.363 7.363 0 0 0 73 17.84L78.93 43q-1.83 2.18-3.6 4.4l-25.83-.91c-.126-.007-.243-.017-.37-.017a7.13 7.13 0 0 0-6 3.277 7.36 7.36 0 0 0-1.23 4.083c0 1.087.236 2.118.66 3.047l10.63 23.43c-.94 1.69-1.83 3.42-2.73 5.14L25.04 89.6a7.37 7.37 0 0 0-6.164 7.261c0 1.596.51 3.074 1.375 4.279l15 20.83c-.6 1.87-1.13 3.76-1.68 5.65l-24 9a7.35 7.35 0 0 0-4.772 6.882 7.33 7.33 0 0 0 2.331 5.368l18.72 17.5c-.21 1.95-.38 3.87-.55 5.87L3.481 185.75a7.33 7.33 0 0 0-3.49 6.245 7.35 7.35 0 0 0 3.49 6.255l21.86 13.5c.17 1.97.34 3.93.55 5.88l-18.72 17.5a7.32 7.32 0 0 0-2.333 5.365c0 3.15 1.986 5.84 4.773 6.885l24 9c.55 1.89 1.09 3.79 1.68 5.66l-15 20.82a7.33 7.33 0 0 0-1.372 4.286c0 3.652 2.67 6.685 6.162 7.254l25.41 4.14c.9 1.73 1.79 3.46 2.73 5.16l-10.66 23.41a7.4 7.4 0 0 0-.66 3.061c0 1.504.453 2.903 1.23 4.07a7.4 7.4 0 0 0 6.37 3.26l25.81-.911c1.19 1.48 2.39 2.96 3.62 4.41L73 366.16a7.3 7.3 0 0 0-.197 1.672A7.363 7.363 0 0 0 81.84 375l25.15-5.97c1.42 1.22 2.93 2.42 4.42 3.61l-.92 25.81c-.004.105 0 .201 0 .308a7.354 7.354 0 0 0 10.39 6.692l23.4-10.63c1.71.94 3.43 1.83 5.161 2.73l4.15 25.41a7.37 7.37 0 0 0 7.261 6.165c1.596 0 3.073-.51 4.279-1.375l20.82-15c1.87.6 3.77 1.13 5.66 1.68l9 24a7.35 7.35 0 0 0 6.882 4.771 7.33 7.33 0 0 0 5.368-2.33l17.5-18.72c1.95.21 3.88.38 5.88.55l13.51 21.819a7.33 7.33 0 0 0 6.245 3.49 7.35 7.35 0 0 0 6.255-3.49l13.48-21.84c1.97-.17 3.93-.34 5.88-.55l17.5 18.72a7.33 7.33 0 0 0 5.365 2.333c3.15 0 5.84-1.986 6.885-4.773l9-24c1.89-.54 3.78-1.08 5.64-1.67l20.86 14.97a7.33 7.33 0 0 0 4.285 1.372 7.36 7.36 0 0 0 7.255-6.162l4.15-25.42a210 210 0 0 0 5.15-2.73l23.42 10.73a7.4 7.4 0 0 0 3.047.666 7.354 7.354 0 0 0 7.342-7.666l-.91-25.82a209 209 0 0 0 4.4-3.61l25.16 5.93a7.3 7.3 0 0 0 1.673.196A7.363 7.363 0 0 0 439 366.16L433.12 341a325 325 0 0 0 3.61-4.4l25.82.91c.087.003.167-.001.256-.001a7.354 7.354 0 0 0 6.694-10.389l-10.68-23.42c.94-1.7 1.83-3.42 2.73-5.15l25.42-4.15a7.37 7.37 0 0 0 6.164-7.261c0-1.596-.51-3.073-1.375-4.278l-15-20.83c.59-1.86 1.13-3.761 1.67-5.641l24-9a7.35 7.35 0 0 0 4.772-6.882 7.33 7.33 0 0 0-2.331-5.368l-18.72-17.5c.21-1.95.38-3.88.55-5.88zm-151-129.08 32.14-6.88A186 186 0 0 1 407 82.38h-79.05c-12.5 0-24.21 17.64-27.1 26.46-2.89 7.86-7.15 32.45-9.06 40-6.13 24.59-25.38 25.87-29.79 25.87h-48.48l-.05-34.35h44.83c1.72 0 2.89-.34 2.89-1.91V84.26c0-1.62-1.17-1.91-2.89-1.91H105.13a186 186 0 0 1 16.26-19.21l31.51 6.76c.936.2 1.898.295 2.893.295 6.662 0 12.235-4.708 13.568-10.975L177 23.56c23.968-11.132 50.993-17.351 79.141-17.351 27.52 0 53.665 5.941 77.219 16.611L341 58.49c1.346 6.273 6.917 10.99 13.59 10.99a14 14 0 0 0 2.929-.31zm25.77-34.49c0 .006-.058.01-.058.016 0 8.26-6.588 14.993-14.792 15.224H368c-8.388-.027-15.19-6.846-15.19-15.24 0-8.411 6.829-15.24 15.24-15.24s15.24 6.829 15.24 15.24m-225.62.68c0 .002-.058.005-.058.008 0 8.247-6.56 14.974-14.742 15.242h-.45c-8.406-.005-15.23-6.832-15.23-15.24 0-8.41 6.829-15.24 15.24-15.24 8.408 0 15.234 6.823 15.24 15.23m-88.1 178.49c-.725-6.7-1.062-13.275-1.062-20.167 0-17.824 2.49-35.071 7.142-51.413h53.6V262h-26.56l6.77-15.22a13.8 13.8 0 0 0 1.208-5.633c0-5.664-3.4-10.54-8.268-12.697zm-11.26 36.06c.003-8.408 6.843-15.224 15.253-15.224s15.24 6.829 15.24 15.24c0 8.265-6.594 15.003-14.803 15.234h-.46c-8.406-.006-15.23-6.832-15.23-15.24zm155.16-24.49h58.7c12.49 0 27.68 4.41 27.68 16.7 0 14.85-19.79 18.62-23.07 18.62h-63.26zM399 141.29c10.31 1.13 22 5.71 22.02 26.46v8.82c0 1.86.78 3.13 2.69 3.13h19.28c.35 4.671.53 9.029.53 13.79 0 6.327-.315 12.582-.93 18.75L408 227.57a14 14 0 0 0-8.238 12.773c0 1.974.41 3.853 1.148 5.558l18 40.569c-26.805 47.013-73.396 81.133-128.37 91.43l-26.26-25a13.8 13.8 0 0 0-9.582-3.865c-3.941 0-7.5 1.655-10.018 4.305l-23.47 24.6c-41.29-7.803-77.943-29.082-104.89-59.19h198.9c4.99 0 23.51-2.23 40.27-13.23 11.91-7.89 29.399-23.96 29.399-49.48 0-23.62-19.6-41.31-38.46-53.26 15.18-12 24.79-18.91 30.57-51.4 1.37-5.97 12.2-11.22 22-10.09zm-159 246.5c0-.008-.007-.016-.007-.024 0-8.412 6.828-15.24 15.24-15.24s15.24 6.828 15.24 15.24c0 8.268-6.599 15.007-14.813 15.234h-.45c-8.387-.017-15.193-6.823-15.21-15.21M436.84 234l.216-.002c8.412 0 15.242 6.83 15.242 15.242 0 8.337-6.709 15.12-15.018 15.24h-.44c-8.411 0-15.24-6.829-15.24-15.24S428.429 234 436.84 234"/><glyph glyph-name="tiktok" unicode="" d="M448 238.09h-.513c-45.51 0-87.842 14.616-122.257 39.25V98.62c-.033-89.685-72.857-162.489-162.55-162.489C72.964-63.869.13 8.967.13 98.681s72.835 162.55 162.55 162.55c7.628 0 14.969-.521 22.32-1.54v-89.89a74.5 74.5 0 0 1-22.388 3.422c-41.184 0-74.62-33.436-74.62-74.62s33.436-74.62 74.62-74.62 74.618 33.454 74.618 74.638V448h88q-.005-.507-.005-1.016c0-7.26.639-14.244 1.864-21.154 6.287-33.577 26.199-62.362 53.91-80.22 19.18-12.682 42.16-20.067 66.851-20.067.01 0 .14-.074.15-.074z"/><glyph glyph-name="unsplash" unicode="" d="M448 217.83V-32H0v249.83h141.13V92.91h165.74v124.92zM306.87 416V291.09H141.13V416z"/><glyph glyph-name="cloudflare" unicode="" horiz-adv-x="640" d="M407.906 128.087c12.184-.574 22.218-5.51 28.233-13.902 6.55-9.1 8-21.5 4.101-34.9l-3.273-11.265a5.61 5.61 0 0 0-5.271-4c-.042-.001-.08-.02-.122-.02l-426.101.05a4.515 4.515 0 0 0-4.444 3.872A95 95 0 0 0-.001 81.88c0 52.393 41.924 95.014 94.2 96.53-1.373 5.391-2.054 10.979-2.054 16.794 0 37.597 30.523 68.12 68.12 68.12a67.8 67.8 0 0 0 40.991-13.724c20.542 59.582 77.085 102.308 143.607 102.308 72.156 0 132.63-50.417 148.085-117.914a7.7 7.7 0 0 0 .164-1.584v-.047l-.003-.102a7.9 7.9 0 0 0-.521-2.835l-13.286-34.542c-10.476-27.21-40.39-49.523-68.022-50.784l-232.94-2.935a6.15 6.15 0 0 1-5.36-4.077 4.67 4.67 0 0 1 .493-4.146 4.57 4.57 0 0 1 3.633-1.927zm105.95 98.813c69.668 0 126.144-56.2 126.147-125.533 0-.046-.018-.064-.018-.11 0-11.744-1.626-23.113-4.664-33.89a4.695 4.695 0 0 0-4.5-3.37H454.872c-.048 0-.09.017-.135.017a2.72 2.72 0 0 0-2.428 3.68l3.695 9.606c10.477 27.21 40.392 49.514 68.146 50.784l51.125 2.94a6.16 6.16 0 0 1 5.35 4.074 4.67 4.67 0 0 1-.513 4.168 4.48 4.48 0 0 1-3.511 1.895l-49.2 2.938c-12.184.578-22.218 5.5-28.238 13.9-6.549 9.104-8 21.491-4.1 34.89l9.077 31.194a3.78 3.78 0 0 0 3.324 2.653c2.12.102 4.25.164 6.392.164"/><glyph glyph-name="guilded" unicode="" d="M443.427 384c.002-.519.025-.367.025-.886a630 630 0 0 0-5.879-86.057H101.426s.367-52.05 27.092-105.883c27.458-51.818 65.317-85.103 96.55-98.363 32.269 15.082 63.442 41.27 80.455 69.483h-88.59c-22.923 18.998-40.96 50.514-45.1 86.944h259.89c-12.816-58.571-40.009-111.838-65.916-145.762C329.99 56.7 281.537 20.666 225.257 0 224 0 112.047 33.864 47.99 161.641 26.763 203.94 4.572 280.741 4.572 384z"/><glyph glyph-name="hive" unicode="" horiz-adv-x="512" d="M260.353 193.122a2.24 2.24 0 0 0 .006-2.235L132.947-30.89a2.208 2.208 0 0 0-3.83-.01L.3 190.878a2.24 2.24 0 0 0 0 2.235L127.71 414.89a2.204 2.204 0 0 0 3.829.01zm39.078 25.713L188.807 412.659a2.227 2.227 0 0 0 1.9 3.34h66.508a2.18 2.18 0 0 0 1.9-1.11l110.626-193.824a2.227 2.227 0 0 0-1.9-3.341h-66.51a2.19 2.19 0 0 0-1.9 1.111M511.7 193.114a2.25 2.25 0 0 0 0-2.229L384.892-30.888A2.19 2.19 0 0 0 382.987-32h-66.6a2.228 2.228 0 0 0-1.906 3.34L440.65 192 314.485 412.66a2.227 2.227 0 0 0 1.905 3.34h66.6a2.2 2.2 0 0 0 1.91-1.112zm-145.684-30.031a2.23 2.23 0 0 0 1.901-3.34L259.117-30.89a2.18 2.18 0 0 0-1.9-1.111h-66.509a2.23 2.23 0 0 0-1.9 3.34l108.8 190.632a2.18 2.18 0 0 0 1.9 1.111z"/><glyph glyph-name="innosoft" unicode="" d="m422.559 288.29.003-190.955c.025-12.41-5.878-22.896-16.623-29.528L241.412-27.188c-5.08-3.041-11.094-4.79-17.44-4.79a33.7 33.7 0 0 0-16.81 4.463L88.368 41.068l247.049 142.627v-56L185.366 41.068l32.723-18.9a12.2 12.2 0 0 1 5.926-1.524c2.185 0 4.237.576 6.011 1.587l138.111 79.744a11.95 11.95 0 0 1 5.92 10.332v138.316L65.65 72.559a27.1 27.1 0 0 0-13.436-3.541 26.9 26.9 0 0 0-13.3 3.496C30.519 77.27 25.61 85.807 25.44 95.943v191.5c.519 12.733 6.655 23.003 17.29 29.124l164.6 95.025c11.5 5.985 22.808 5.86 33.8-.27l118.513-68.407-247.061-142.637v56l150.062 86.637-32.655 18.852a12.2 12.2 0 0 1-5.996 1.568c-2.152 0-4.173-.56-5.926-1.542L79.99 282.079a11.93 11.93 0 0 1-6.047-10.34V133.352l308.539 178.142a26.5 26.5 0 0 0 13.25 3.53c4.708 0 9.13-1.235 12.96-3.397 8.165-4.632 13.692-13.33 13.866-23.337"/><glyph glyph-name="instalod" unicode="" horiz-adv-x="512" d="m153.384-32 50.845 146.789 298.325 57.446L387.114-32zm351.342 239.922L360.231 180.1 155.669 416h231.444zm-380.34 191.269 101.241-116.752L123.236-13.155 7.274 191.999z"/><glyph glyph-name="octopus-deploy" unicode="" horiz-adv-x="512" d="M455.6 98.8c12.44-10.6 42.635-26.478 42.524-45.267-.153-24.608-48.424 5.241-53.818 9.52 6.14-10.728 66.998-74.179 28.263-78.695C436.913-19.8 405.429 30 384.007 51.381c-36 35.908-29.737-43.533-29.9-59.944-.257-25.909-18.558-78.421-51.411-44.221-27.139 28.231-16.873 73.26-35.739 104.622-20.664 34.353-55.036-34.354-63.627-46.926-9.596-14.042-57.609-82.04-76.709-45.812-15.499 29.4 9.28 75.512 21.463 102.103-4.443-9.658-35.93-23.942-45.13-28.588C82.167 22.118 61.068 15.889 37.69 17.57c-27.892 2-38.38 11.657 8.428 41.857 38.561 24.84 83.86 67.421 66.662 117.582-9.373 27.33-22.358 50.757-24.09 80.3-.21 3.562-.25 7.08-.25 10.692 0 22.096 3.97 43.272 11.237 62.852C134.252 423.66 237.04 467.6 329.93 439.701c86.037-25.84 145.23-125.74 109.575-212.79-20.575-50.233-29.796-89.02 16.095-128.11z"/><glyph glyph-name="perbyte" unicode="" d="M305.314 163.422q23.895.002 37.928-13.506c14.033-13.508 14.032-20.784 14.032-35.335q0-22.34-13.77-36.111T305.31 64.7H246.6v98.722zM149.435 319.301q23.903.008 37.932-13.504c14.029-13.512 14.028-20.787 14.028-35.338q0-22.335-13.77-36.108t-38.19-13.773h-58.71v98.723zm217.213 96.701q33.658-.038 57.485-23.867c23.827-23.83 23.842-35.048 23.868-57.486V49.353q-.039-33.656-23.868-57.485c-23.829-23.829-35.047-23.842-57.485-23.867H81.353q-33.657.038-57.486 23.867C.037 15.697.025 26.916 0 49.354V334.65q.038 33.657 23.867 57.486c23.829 23.829 35.048 23.84 57.486 23.866zm63.634-366.648-.001 285.296q-.03 26.327-18.668 44.965c-18.638 18.638-27.414 18.649-44.965 18.668H81.353q-26.325-.03-44.965-18.668c-18.64-18.638-18.648-27.414-18.668-44.966V49.354q.03-26.327 18.668-44.965C55.026-14.25 63.803-14.26 81.353-14.28h285.295q26.327.03 44.966 18.668c18.639 18.638 18.648 27.414 18.668 44.964M305.313 319.3q23.895.008 37.928-13.504c14.033-13.512 14.032-20.787 14.032-35.338q0-22.335-13.77-36.108t-38.194-13.773h-58.71V319.3z"/><glyph glyph-name="uncharted" unicode="" d="M171.73 215.187q-.09-.002-.184-.001a4.5 4.5 0 0 0-1.886.414L53.727 283.5v-85.289a10.78 10.78 0 0 0-2.9-7.039 9.37 9.37 0 0 0-6.625-2.483c-.146-.008-.297-.006-.444-.006-1.653 0-3.2.455-4.523 1.247l-22.359 12.835a9.09 9.09 0 0 0-4.97 8.112l.001.17v115.106a9.93 9.93 0 0 0 4.97 8.28l100.2 57.967c1.405.788 3.046 1.236 4.77 1.236s3.346-.448 4.752-1.236l22.358-12.838a9.09 9.09 0 0 0 4.97-8.11l-.002-.17a9.93 9.93 0 0 0-4.968-8.282l-74.53-43.473 116.758-68.318a4.22 4.22 0 0 0 2.071-3.312c0-1.657-.414-3.313-1.657-4.141a48.1 48.1 0 0 1-14.9-25.256 5.38 5.38 0 0 0-4.967-3.314zM323.272 70.269c4.968 0 9.527-4.554 10.35-9.108V35.076a9.93 9.93 0 0 0-4.967-8.281l-100.2-57.553A11 11 0 0 0 223.486-32c-.146-.007-.297-.005-.444-.005-1.654 0-3.2.455-4.525 1.247L118.318 26.795a9.09 9.09 0 0 0-4.97 8.281v26.085c.06 5.229 4.296 9.465 9.524 9.523.147.007.297.005.444.005a8.8 8.8 0 0 0 4.525-1.247l74.53-43.061v133.323a4.863 4.863 0 0 0 6.21 4.555 53 53 0 0 1 13.758-1.807 53 53 0 0 1 15.225 2.22c3.311 1.246 6.211-1.655 6.211-4.554V25.966l74.528 43.062a12.5 12.5 0 0 0 4.97 1.242zM286.007 370c-12.694 0-23 10.306-23 23s10.306 23 23 23 23-10.306 23-23-10.306-23-23-23m63.627 10.086c12.694 0 23-10.306 23-23s-10.306-23-23-23c-12.693 0-23 10.306-23 23s10.307 23 23 23m63.182-83.686c-12.694 0-23 10.306-23 23 0 12.693 10.306 23 23 23 12.693 0 23-10.307 23-23 0-12.694-10.307-23-23-23m-63.182 9.2c12.694 0 23-10.306 23-23 0-12.693-10.306-23-23-23-12.693 0-23 10.307-23 23 0 12.694 10.307 23 23 23m-63.627-83.244c-12.694 0-23 10.302-23 22.995v.005c0 12.693 10.306 23 23 23s23-10.307 23-23c0-12.694-10.306-23-23-23m-62.074-36.358c-12.693 0-23 10.302-23 22.996v.004c0 12.694 10.307 23 23 23 12.694 0 23-10.306 23-23s-10.306-23-23-23m188.883 82.358c12.692 0 22.997-10.309 23-23 0-12.694-10.307-23-23-23-12.694 0-23 10.306-23 23 0 12.693 10.306 23 23 23m0-72.272c12.692 0 22.997-10.308 23-23 0-12.694-10.307-23-23-23-12.694 0-23 10.306-23 23s10.306 23 23 23"/><glyph glyph-name="watchman-monitoring" unicode="" horiz-adv-x="512" d="M256 432c132.548 0 240-107.452 240-240S388.548-48 256-48 16 59.452 16 192s107.452 240 240 240M121.69 18.878l27.685 204.86-9.468 7.4a12.73 12.73 0 0 0-4.888 10.35c0 7.049.145 19.549.145 19.549l13.943 2.012.12 10.967-102.899-17.894a218.2 218.2 0 0 1-9.587-64.014V192c0-70.323 33.315-132.972 84.95-173.122zm105.692 283.27.04-3.618 193.512 37.7c-40.115 46.027-99.143 75.024-164.934 75.024-74.486 0-140.374-37.362-180.018-94.3l73.507-19.175.048 4.369-8.482 7.617s-6.933 5.381.145 9.345c7.186 4.025 39.528 34.5 39.528 34.5 7.203 7.347 10.112 5.476 15.461 0 0 0 32.342-30.477 39.53-34.5 7.076-3.964.143-9.345.143-9.345zm34.063-329.27C379.831-24.211 475.258 72.927 475.258 192a218 218 0 0 1-5.85 50.13l-241.713 31.39.117-10.474 13.942-2.013s.145-12.505.145-19.549c.002-.1.012-.19.012-.29a12.76 12.76 0 0 0-4.901-10.06l-9.467-7.399z"/><glyph glyph-name="wodu" unicode="" horiz-adv-x="640" d="M178.414 108.294H141.1l-28.934 116.231h-.478l-28.46-116.231H45.2L0 279.054h37.548l27.026-116.23h.478l29.655 116.23h35.157l29.178-117.667h.48L187.5 279.054h36.831zM271.4 235.287c38.983 0 64.1-25.828 64.1-65.291 0-39.222-25.112-65.05-64.1-65.05-38.743 0-63.855 25.828-63.855 65.05.001 39.463 25.114 65.291 63.855 65.291m0-104.753c23.2 0 30.133 19.852 30.133 39.462 0 19.851-6.935 39.7-30.133 39.7-27.7 0-29.894-19.85-29.894-39.7.001-19.61 6.937-39.462 29.894-39.462m163.684-6.456h-.478c-7.893-13.393-21.765-19.132-37.548-19.132-37.31 0-55.485 32.045-55.485 66.246 0 33.242 18.415 64.095 54.767 64.095 14.589 0 28.938-6.218 36.831-18.416h.24v62.183h33.96v-170.76h-32.287zM405.428 209.7c-22.24 0-29.894-19.134-29.894-39.463 0-19.371 8.848-39.7 29.894-39.7 22.482 0 29.179 19.613 29.179 39.94 0 20.087-7.175 39.223-29.179 39.223M592.96 108.294h-32.287v17.219h-.718c-8.61-13.87-23.436-20.567-37.786-20.567-36.113 0-45.2 20.329-45.2 50.94v76.054h33.959V162.1c0-20.328 5.98-30.372 21.765-30.372 18.415 0 26.306 10.283 26.306 35.393v64.819h33.961zm9.493 36.83H640v-36.83h-37.547z"/><glyph glyph-name="twitter-square" unicode="" d="M400 416c26.5 0 48-21.5 48-48V16c0-26.5-21.5-48-48-48H48C21.5-32 0-10.5 0 16v352c0 26.5 21.5 48 48 48zm-48.9-158.8c12.8 9.3 24 20.9 32.9 34-11.8-5.1-24.6-8.8-37.8-10.2 13.6 8.1 23.9 20.9 28.8 36.1-12.6-7.5-26.8-13-41.6-15.8-12 12.8-29 20.7-47.9 20.7-40 0-73.3-36.1-64-80.6-54.4 2.8-102.9 28.8-135.2 68.6-5.7-9.7-8.899-20.9-8.899-33.1 0-.037-.066-.032-.066-.068 0-22.75 11.63-42.802 29.265-54.532-10.699.4-20.9 3.4-29.6 8.3v-.8c0-31.9 22.5-58.3 52.5-64.4-10.4-2.7-19.5-2.7-29.599-1.2 8.3-26 32.5-44.9 61.3-45.5-22.5-17.6-50.7-28-81.4-28-5.4 0-10.5.2-15.8.8 29-18.6 63.5-29.4 100.7-29.4 120.6 0 186.6 99.9 186.6 186.6 0 2.8 0 5.7-.2 8.5z"/><glyph glyph-name="facebook-square" unicode="" d="M400 416c26.492 0 48-21.508 48-48V16c0-26.492-21.508-48-48-48H262.75v152.31h57.78l11 71.69h-68.78v46.55c0 19.61 9.61 38.73 40.42 38.73h31.27v61s-28.38 4.84-55.52 4.84c-56.67 0-93.67-34.33-93.67-96.48V192h-63v-71.69h63V-32H48C21.508-32 0-10.492 0 16v352c0 26.492 21.508 48 48 48z"/><glyph glyph-name="linkedin" unicode="" d="M416 416c17.6 0 32-14.5 32-32.3V.3c0-17.8-14.4-32.3-32-32.3H31.9C14.3-32 0-17.5 0 .3v383.4C0 401.5 14.3 416 31.9 416zM135.4 32h.1v213.8H69V32zm-33.2 243c21.3 0 38.5 17.2 38.5 38.5 0 21.2-17.3 38.5-38.5 38.5-21.3 0-38.5-17.3-38.5-38.5S80.9 275 102.2 275M384.3 32v117.2c0 57.6-12.5 101.899-79.7 101.899-32.3 0-54-17.7-62.9-34.5h-.9v29.2h-63.7V32h66.4v105.8c0 27.9 5.3 54.9 39.9 54.9 34 0 34.5-31.9 34.5-56.7V32z"/><glyph glyph-name="github-square" unicode="" d="M400 416c26.5 0 48-21.5 48-48V16c0-26.5-21.5-48-48-48H48C21.5-32 0-10.5 0 16v352c0 26.5 21.5 48 48 48zM277.3 32.3c66 22 110.8 84.9 110.7 158.3 0 91.8-74.4 161.5-166.2 161.5s-162-69.7-162-161.5C59.8 117.2 106 54.4 172 32.3c8.5-1.5 11.5 3.7 11.5 8 0 4.1-.2 26.7-.2 40.6 0 0-46.4-10-56.1 19.7 0 0-7.6 19.2-18.4 24.2 0 0-15.1 10.4 1.1 10.2 0 0 16.4-1.3 25.5-17.1 14.5-25.6 38.8-18.2 48.3-13.9 1.5 10.6 5.8 18 10.6 22.3-37 4.1-74.3 9.5-74.3 73.1 0 18.2 5 27.3 15.6 39-1.8 4.4-7.4 22.1 1.7 45 13.9 4.3 45.7-17.9 45.7-17.9 13.2 3.7 27.5 5.6 41.6 5.6s28.4-1.9 41.6-5.6c0 0 31.8 22.2 45.7 17.9 9.1-23 3.4-40.7 1.7-45 10.6-11.7 17.1-20.8 17.1-39 0-63.9-39-69-76-73.1 6.1-5.2 11.3-15.1 11.3-30.7 0-22.3-.2-49.9-.2-55.3 0-4.3 3.1-9.5 11.5-8m-98.1 61.1c-1.9-.4-3.7.4-3.9 1.7-.2 1.5 1.1 2.8 3 3.2 1.9.2 3.7-.6 3.9-1.9.3-1.3-1-2.6-3-3m-9.5.9c0 1.5-1.8 2.6-3.7 2.4-2 0-3.5-1.1-3.5-2.4 0-1.5 1.5-2.6 3.7-2.4 2 0 3.5 1.1 3.5 2.4M156 95.4c-.4-1.3-2.4-1.9-4.1-1.3-1.9.4-3.2 1.9-2.8 3.2s2.4 1.9 4.1 1.5c2-.6 3.3-2.1 2.8-3.4m-12.3 5.4c.9.8.4 2.8-.9 4.1-1.5 1.5-3.4 1.7-4.3.6-1-.9-.6-2.8.9-4.1 1.5-1.5 3.4-1.7 4.3-.6m-9.1 9.1c1.1.8 1.1 2.6 0 4.1-.9 1.5-2.6 2.2-3.7 1.3-1.1-.7-1.1-2.4 0-3.9s2.8-2.1 3.7-1.5m-6.5 9.7c.9.7.7 2.2-.4 3.5-1.1 1-2.6 1.5-3.5.6-.9-.7-.7-2.2.4-3.5 1.1-1 2.6-1.5 3.5-.6m-6.7 7.4c.4.8-.2 1.9-1.5 2.6-1.3.5-2.4.2-2.8-.4-.4-.9.2-2 1.5-2.6 1.1-.7 2.4-.5 2.8.4"/><glyph glyph-name="twitter" unicode="" horiz-adv-x="512" d="M459.37 296.284c.325-4.548.325-9.098.325-13.645 0-138.72-105.583-298.559-298.559-298.559C101.684-15.92 46.456 1.3 0 31.186c8.447-.974 16.569-1.299 25.34-1.299 49.055 0 94.213 16.569 130.274 44.832-46.132.976-84.792 31.189-98.112 72.773 6.498-.975 12.995-1.624 19.818-1.624 9.421 0 18.843 1.3 27.613 3.573-48.08 9.747-84.142 51.98-84.142 102.984v1.299c13.969-7.797 30.214-12.67 47.43-13.319-28.263 18.843-46.78 51.005-46.78 87.39 0 19.493 5.196 37.361 14.294 52.955 51.654-63.675 129.3-105.258 216.364-109.807-1.624 7.797-2.599 15.918-2.599 24.04 0 57.827 46.783 104.934 104.934 104.934 30.214 0 57.502-12.67 76.671-33.137 23.715 4.548 46.455 13.32 66.599 25.34-7.798-24.366-24.366-44.833-46.132-57.827 21.117 2.273 41.584 8.122 60.426 16.243-14.292-20.79-32.161-39.308-52.628-54.253z"/><glyph glyph-name="facebook" unicode="" horiz-adv-x="512" d="M504 192c0-123.78-90.69-226.38-209.25-245v173.31h57.78l11 71.69h-68.78v46.55c0 19.61 9.61 38.73 40.41 38.73h31.28v61s-28.38 4.84-55.52 4.84c-56.67 0-93.67-34.33-93.67-96.48V192h-63v-71.69h63V-53C98.69-34.38 8 68.22 8 192c0 137 111 248 248 248s248-111 248-248"/><glyph glyph-name="github" unicode="" horiz-adv-x="496" d="M165.9 50.6c0-2-2.3-3.6-5.2-3.6-3.3-.3-5.6 1.3-5.6 3.6 0 2 2.3 3.6 5.2 3.6 3 .3 5.6-1.3 5.6-3.6m-31.1 4.5c.7 2 3.6 3 6.2 2.3 3-.9 4.9-3.2 4.3-5.2s-3.6-3-6.2-2c-3 .6-5 2.9-4.3 4.9m44.2 1.7c2.9.3 5.6-1 5.9-2.9.3-2-1.7-3.9-4.6-4.6-3-.7-5.6.6-5.9 2.6-.3 2.3 1.7 4.2 4.6 4.9M244.8 440C383.5 440 496 334.7 496 196 496 85.1 428.2-9.8 328.2-43c-12.7-2.3-17.3 5.6-17.3 12.1 0 8.2.3 49.9.3 83.6 0 23.5-7.8 38.5-17 46.4 55.9 6.3 114.8 14 114.8 110.5 0 27.4-9.8 41.2-25.8 58.9 2.6 6.5 11.1 33.2-2.6 67.9-20.9 6.6-69-27-69-27-20 5.6-41.5 8.5-62.8 8.5S206 315 186 309.4c0 0-48.1 33.5-69 27-13.7-34.6-5.2-61.4-2.6-67.9-16-17.6-23.6-31.4-23.6-58.9 0-96.2 56.4-104.3 112.3-110.5-7.2-6.6-13.7-17.7-16-33.7-14.3-6.6-51-17.7-72.9 20.9-13.7 23.8-38.6 25.8-38.6 25.8-24.5.3-1.6-15.4-1.6-15.4 16.4-7.5 27.8-36.6 27.8-36.6 14.7-44.8 84.7-29.8 84.7-29.8 0-21 .3-55.2.3-61.4 0-6.5-4.5-14.4-17.3-12.1C69.8-9.8 0 85.1 0 196c0 138.7 106.1 244 244.8 244M97.2 95.1c1.3 1.3 3.6.6 5.2-1 1.7-1.9 2-4.2.7-5.2-1.3-1.3-3.6-.6-5.2 1-1.7 1.9-2 4.2-.7 5.2m-10.8 8.1c.7 1 2.3 1.3 4.3.7 2-1 3-2.6 2.3-3.9-.7-1.4-2.7-1.7-4.3-.7-2 1-3 2.6-2.3 3.9m32.4-35.6c1.3 1.6 4.3 1.3 6.5-1 2-1.9 2.6-4.9 1.3-6.2-1.3-1.6-4.2-1.3-6.5 1-2.3 1.9-2.9 4.9-1.3 6.2m-11.4 14.7c1.6 1.3 4.2.3 5.6-2 1.6-2.3 1.6-4.9 0-6.2-1.3-1-4 0-5.6 2.3s-1.6 4.9 0 5.9"/><glyph glyph-name="pinterest" unicode="" horiz-adv-x="496" d="M496 192C496 55 385-56 248-56c-25.6 0-50.2 3.9-73.4 11.1 10.1 16.5 25.2 43.5 30.8 65 3 11.6 15.4 59 15.4 59 8.1-15.4 31.7-28.5 56.8-28.5 74.8 0 128.7 68.8 128.7 154.3 0 81.9-66.9 143.2-152.9 143.2-107 0-163.9-71.8-163.9-150.1 0-36.4 19.401-81.7 50.3-96.1 4.7-2.2 7.2-1.2 8.3 3.3.801 3.4 5 20.3 6.9 28.1.6 2.5.3 4.7-1.7 7.1-10.1 12.5-18.3 35.3-18.3 56.6 0 54.7 41.401 107.6 112 107.6 60.901 0 103.6-41.5 103.6-100.9 0-67.1-33.899-113.6-78-113.6-24.3 0-42.599 20.1-36.699 44.8 7 29.5 20.5 61.3 20.5 82.6 0 19-10.2 34.9-31.4 34.9-24.9 0-44.9-25.7-44.9-60.2 0-22 7.4-36.8 7.4-36.8s-24.5-103.8-29-123.2c-5-21.4-3-51.6-.9-71.2C65.4-2.9 0 86.9 0 192c0 137 111 248 248 248s248-111 248-248"/><glyph glyph-name="pinterest-square" unicode="" d="M448 368V16c0-26.5-21.5-48-48-48H154.4c9.8 16.4 22.4 40 27.4 59.3 3 11.5 15.3 58.4 15.3 58.4 8-15.3 31.4-28.2 56.3-28.2 74.1 0 127.399 68.1 127.399 152.7 0 81.1-66.2 141.8-151.399 141.8-106 0-162.2-71.1-162.2-148.6 0-36 19.2-80.8 49.8-95.1 4.7-2.2 7.1-1.2 8.2 3.3.8 3.4 5 20.1 6.8 27.8.6 2.5.3 4.6-1.7 7-10.1 12.3-18.3 34.9-18.3 56 0 54.2 41 106.6 110.9 106.6 60.3 0 102.6-41.1 102.6-99.9 0-66.4-33.5-112.4-77.2-112.4-24.1 0-42.1 19.9-36.4 44.4 6.9 29.2 20.3 60.7 20.3 81.8 0 53-75.5 45.7-75.5-25 0-21.7 7.3-36.5 7.3-36.5-31.4-132.8-36.1-134.5-29.6-192.6l2.2-.8H48C21.5-32 0-10.5 0 16v352c0 26.5 21.5 48 48 48h352c26.5 0 48-21.5 48-48"/><glyph glyph-name="google-plus-square" unicode="" d="M400 416c26.5 0 48-21.5 48-48V16c0-26.5-21.5-48-48-48H48C21.5-32 0-10.5 0 16v352c0 26.5 21.5 48 48 48zM164 92c57.7 0 96 40.5 96 97.6 0 6.5-.6 11.6-1.6 16.6H164v-34.4h56.9c-2.4-14.6-17.2-43.1-56.8-43.1-34.1 0-61.9 28.3-61.9 63.2 0 35 27.8 63.2 61.9 63.2 19.5 0 32.4-8.3 39.8-15.4l27.1 26.1c-17.5 16.4-40 26.2-67 26.2-55.3 0-100-44.7-100-100S108.7 92 164 92m220 81.8V203h-29v29h-29.2v-29h-29v-29.2h29v-29H355v29z"/><glyph glyph-name="google-plus-g" unicode="" horiz-adv-x="640" d="M386.061 219.504c1.834-9.692 3.144-19.384 3.144-31.956C389.205 77.795 315.599 0 204.8 0c-106.084 0-192 85.915-192 192s85.916 192 192 192c51.864 0 95.083-18.86 128.61-50.292l-52.125-50.03c-14.146 13.62-39.029 29.6-76.486 29.6-65.483 0-118.92-54.223-118.92-121.278S139.317 70.723 204.8 70.723c75.961 0 104.514 54.745 108.965 82.774H204.8v66.008h181.261zm185.406-6.437H627.2v-56.001h-55.733v-55.733h-56.001v55.733h-55.732v56.001h55.732v55.732h56.001z"/><glyph glyph-name="linkedin-in" unicode="" d="M100.28 0H7.4v299.1h92.88zM53.79 339.9C24.09 339.9 0 364.5 0 394.2c0 29.687 24.103 53.79 53.79 53.79s53.79-24.103 53.79-53.79c0-29.7-24.1-54.3-53.79-54.3M447.9 0h-92.68v145.6c0 34.7-.7 79.2-48.29 79.2-48.29 0-55.69-37.7-55.69-76.7V0h-92.78v299.1h89.08v-40.8h1.3c12.4 23.5 42.69 48.3 87.88 48.3 94 0 111.28-61.9 111.28-142.3V0z"/><glyph glyph-name="github-alt" unicode="" horiz-adv-x="480" d="M186.1 119.3c0-20.9-10.9-55.1-36.7-55.1s-36.7 34.2-36.7 55.1 10.9 55.1 36.7 55.1 36.7-34.2 36.7-55.1M480 169.8c0-31.9-3.2-65.7-17.5-95C424.6-1.8 320.4 0 245.8 0 170 0 59.6-2.7 20.2 74.8 5.6 103.8 0 137.9 0 169.8c0 41.9 13.9 81.5 41.5 113.601-5.2 15.8-7.7 32.4-7.7 48.8 0 21.5 4.9 32.3 14.6 51.8 45.3 0 74.3-9 108.8-36 29 6.9 58.8 10 88.7 10 27 0 54.2-2.9 80.4-9.2 34 26.7 63 35.2 107.8 35.2 9.8-19.5 14.6-30.3 14.6-51.8 0-16.4-2.6-32.7-7.7-48.2 27.5-32.4 39-72.3 39-114.2zm-64.3-50.5c0 43.9-26.7 82.6-73.5 82.6-18.9 0-37-3.4-56-6-14.9-2.3-29.8-3.2-45.1-3.2-15.2 0-30.1.9-45.1 3.2-18.7 2.6-37 6-56 6-46.8 0-73.5-38.7-73.5-82.6C66.5 31.5 146.9 18 216.9 18h48.199c70.3 0 150.601 13.4 150.601 101.3m-82.6 55.1c25.8 0 36.7-34.2 36.7-55.1s-10.9-55.1-36.7-55.1-36.7 34.2-36.7 55.1 10.9 55.1 36.7 55.1"/><glyph glyph-name="maxcdn" unicode="" horiz-adv-x="512" d="M461.1 5.3h-97.4L415.6 248c2.3 10.2.9 19.5-4.4 25.7-5 6.1-13.7 9.6-24.2 9.6h-49.3l-59.5-278h-97.4l59.5 278h-83.4L97.4 5.3H0l59.5 278-44.6 95.4H387c39.401 0 75.3-16.3 98.3-44.9 23.3-28.6 31.8-67.4 23.601-105.9z"/><glyph glyph-name="html5" unicode="" horiz-adv-x="384" d="M0 416h384L349.1 20.2 191.5-32 34.9 20.2zm308.2-127.9 4.4 47.7H71.5l12.8-145.6h166.9l-6-62.2-53.701-14.5-53.5 14.5-3.5 38.1h-47.7l6-75.8 98.7-27.3h1.1v.3l97.9 27 13.6 148.4h-175.6l-4.1 49.4z"/><glyph glyph-name="css3" unicode="" horiz-adv-x="512" d="M480 416 416 48 192.7-32 0 48l19.6 94.8h82l-8-40.6L210 57.8l134.1 44.4 18.8 97.1H29.5l16 82h333.7l10.5 52.7H56.3l16.3 82z"/><glyph glyph-name="btc" unicode="" horiz-adv-x="384" d="M310.204 205.362c46.006-11.028 74.997-38.444 69.326-99.89-7.248-76.573-61.596-97.055-142.896-101.468V-64h-48.527V2.745c-12.29 0-25.21 0-38.444.314V-64h-48.529V4.004s-8.888.316-97.37.316l9.768 57.666c34.73-.614 50.33-3.421 53.255 16.07v217.43c-4.607 24.566-24.71 22.105-63.024 21.427v51.678c58.748-.276 79.529-.54 97.37 0V448h48.529v-77.833c12.919.315 25.839.63 38.444.63V448h48.527v-79.41c62.393-5.355 109.492-24.578 114.851-81.928 4.097-41.91-13.55-67.12-41.28-81.3M150.608 313.447v-96.74c27.416 0 113.126-6.303 113.126 48.212 0 57.035-85.71 48.528-113.126 48.528m0-251.776c32.772 0 133.126-6.933 133.127 53.253 0 62.393-100.355 53.255-133.127 53.255z"/><glyph glyph-name="youtube" unicode="" horiz-adv-x="576" d="M549.655 323.917c11.412-42.867 11.412-132.305 11.412-132.305s0-89.439-11.412-132.306c-6.281-23.65-24.787-41.5-48.284-47.82C458.78-.001 288-.001 288-.001S117.22 0 74.629 11.486c-23.497 6.32-42.003 24.17-48.284 47.82-11.413 42.867-11.413 132.306-11.413 132.306s0 89.437 11.413 132.305c6.28 23.65 24.787 42.275 48.284 48.597C117.219 384 287.999 384 287.999 384s170.782 0 213.372-11.486c23.497-6.32 42.003-24.947 48.284-48.597m-317.51-213.508 142.739 81.201-142.739 81.205z"/><glyph glyph-name="xing" unicode="" horiz-adv-x="384" d="M162.7 238c-1.8-3.3-25.2-44.4-70.1-123.5-4.9-8.3-10.8-12.5-17.7-12.5H9.8c-7.7 0-12.1 7.5-8.5 14.4l69 121.3q.3 0 0 .3l-43.9 75.6c-4.3 7.8.3 14.1 8.5 14.1H100c7.3 0 13.3-4.1 18-12.2zm219.9 163.9-144-253v-.3L330.2-18c3.9-7.1.2-14.1-8.5-14.1h-65.2c-7.6 0-13.6 4-18 12.199l-92.4 168.5c3.3 5.8 51.5 90.8 144.801 255.2 4.6 8.1 10.4 12.2 17.5 12.2h65.7c8 0 12.3-6.7 8.5-14.1z"/><glyph glyph-name="xing-square" unicode="" d="M400 416c26.5 0 48-21.5 48-48V16c0-26.5-21.5-48-48-48H48C21.5-32 0-10.5 0 16v352c0 26.5 21.5 48 48 48zM140.4 127.8c4.9 0 9.1 2.9 12.6 9.1q48.15 84.75 50.1 88.2l-31.9 55.3q-5.1 8.7-12.9 8.7h-46.6c-5.8 0-9-4.5-6-10.1l31.4-54c.1-.1.1-.2 0-.2l-49.3-86.7c-2.7-5 .5-10.3 6-10.3zm219.7 214.1c2.8 5.3-.3 10.1-6 10h-46.9c-5.1 0-9.2-2.9-12.5-8.7C228.1 225.8 193.6 165 191.3 160.9l66-120.301c3.2-5.8 7.401-8.7 12.901-8.7h46.6c6.1 0 8.8 5 6 10.1l-65.5 119v.2z"/><glyph glyph-name="dropbox" unicode="" horiz-adv-x="528" d="m264.4 331.7-132-84.3 132-84.3-132-84.3L0 163.9l132.3 84.3L0 331.7 132.3 416zM131.6 52.3l132 84.3 132-84.3-132-84.3zm132.8 111.6 132 84.3-132 83.6L395.7 416 528 331.7l-132.3-84.3L528 163.2 395.7 78.9z"/><glyph glyph-name="stack-overflow" unicode="" horiz-adv-x="384" d="m290.7 137-8.2-39-195.7 41 8.2 39.3zm51 87-25.5-30.8-153.5 128.3 25.5 30.8zm-31.2-39.7L293.7 148l-181.2 84.5 16.7 36.5zM262 416l119.3-160.3-32-24L230 392zm20.5-328V48.3h-200V88zm39.7-80v120h40V-32H2.7v160h40V8z"/><glyph glyph-name="instagram" unicode="" d="M224.1 307c63.6 0 114.9-51.3 114.9-114.9S287.7 77.201 224.1 77.201s-114.899 51.3-114.899 114.899S160.501 307 224.1 307m0-189.6c41.1 0 74.7 33.5 74.7 74.7s-33.5 74.7-74.7 74.7-74.7-33.5-74.7-74.7 33.6-74.7 74.7-74.7m146.4 194.3c0-14.9-12-26.8-26.8-26.8-14.9 0-26.8 12-26.8 26.8s12 26.8 26.8 26.8 26.8-12 26.8-26.8m76.1-27.2c2.1-37 2.1-147.8 0-184.8-1.8-35.9-10-67.7-36.2-93.9-26.2-26.3-58-34.5-93.9-36.2-37-2.1-147.9-2.1-184.9 0-35.899 1.8-67.6 10-93.899 36.2s-34.5 58-36.2 93.9c-2.1 37-2.1 147.899 0 184.899 1.8 35.9 9.9 67.7 36.2 93.9s58.1 34.4 93.9 36.1c37 2.1 147.9 2.1 184.9 0 35.9-1.8 67.7-10 93.9-36.2 26.3-26.2 34.5-58 36.199-93.9zM398.8 60c11.7 29.4 9 99.5 9 132.1s2.7 102.601-9 132.101c-7.9 19.7-23 34.8-42.6 42.6-29.4 11.6-99.5 9-132.1 9s-102.6 2.7-132.1-9c-19.7-7.9-34.8-23-42.6-42.6-11.6-29.4-9-99.5-9-132.101S37.7 89.5 49.4 60c7.9-19.7 23-34.8 42.6-42.6 29.4-11.6 99.5-9 132.1-9s102.6-2.7 132.1 9c19.7 7.9 34.8 23 42.6 42.6"/><glyph glyph-name="flickr" unicode="" d="M400 416c26.5 0 48-21.5 48-48V16c0-26.5-21.5-48-48-48H48C21.5-32 0-10.5 0 16v352c0 26.5 21.5 48 48 48zM144.5 129c35.1 0 63.5 28.4 63.5 63.5S179.6 256 144.5 256 81 227.6 81 192.5s28.4-63.5 63.5-63.5m159 0c35.1 0 63.5 28.4 63.5 63.5S338.6 256 303.5 256 240 227.6 240 192.5s28.4-63.5 63.5-63.5"/><glyph glyph-name="adn" unicode="" horiz-adv-x="496" d="m248 280.5 64.9-98.8H183.1zM496 192C496 55.1 384.9-56 248-56S0 55.1 0 192s111.1 248 248 248 248-111.1 248-248m-99.8-82.7L248 332.5 99.8 109.3h30.4l33.6 51.7h168.601l33.6-51.7z"/><glyph glyph-name="bitbucket" unicode="" horiz-adv-x="512" d="m22.2 416 466.8-.2c.954-.014 1.875-.08 2.8-.2 7.588-1.25 13.4-7.832 13.4-15.772q-.002-1.291-.2-2.528L437.1-19.5c-1.25-7.59-7.843-13.402-15.783-13.402l-.217.001H95.4c-10.712.087-19.596 7.948-21.3 18.2L6.2 397.402a26 26 0 0 0-.2 2.8c.109 8.737 7.233 15.8 15.995 15.8zm285.9-297.8 25.2 147H176l28.1-147z"/><glyph glyph-name="tumblr" unicode="" horiz-adv-x="320" d="M309.8-32.3c-13.6-14.5-50-31.7-97.4-31.7-120.8 0-147 88.8-147 140.6v144H17.9c-5.5 0-10 4.5-10 10v68c0 7.2 4.5 13.6 11.3 16 62 21.8 81.5 76 84.3 117.101.8 11 6.5 16.3 16.1 16.3h70.9c5.5 0 10-4.5 10-10V322.8h83c5.5 0 10-4.4 10-9.9v-81.7c0-5.5-4.5-10-10-10h-83.4V88c0-34.2 23.7-53.6 68-35.8 4.8 1.9 9 3.2 12.7 2.2 3.5-.9 5.8-3.4 7.4-7.9l22-64.3c1.8-5 3.3-10.6-.4-14.5"/><glyph glyph-name="tumblr-square" unicode="" d="M400 416c26.5 0 48-21.5 48-48V16c0-26.5-21.5-48-48-48H48C21.5-32 0-10.5 0 16v352c0 26.5 21.5 48 48 48zM317.7 51.8c2.3 2.4 1.3 5.9.3 9.1l-13.8 40.2c-1 2.8-2.4 4.4-4.6 4.9-2.4.6-5-.2-8-1.4-27.7-11.1-42.5 1-42.5 22.4v83.3h52.1c3.4 0 6.2 2.8 6.2 6.2v51.1c0 3.4-2.8 6.2-6.2 6.2h-51.9v72c0 3.4-2.8 6.2-6.2 6.2h-44.3c-5.9 0-9.5-3.3-10-10.2-1.8-25.7-13.9-59.5-52.7-73.2-4.3-1.5-7.1-5.5-7.1-10v-42.5c0-3.4 2.8-6.2 6.2-6.2h29.7v-90c0-32.4 16.4-87.9 91.9-87.9 29.7 0 52.4 10.7 60.9 19.8"/><glyph glyph-name="apple" unicode="" horiz-adv-x="384" d="M318.7 179.3c0-1.9-3.5-61.2 61.7-91.9-12.2-36.8-54-118.6-102.6-119.3-28.1 0-44.6 17.9-76.4 17.9-32.801 0-50.6-17.3-75.801-17.9-48.2-1.5-94.4 88.5-107.199 125.2Q4 135.2 4 174.5c0 88.7 59.3 132.3 115.1 133.2 27 0 61.4-19.7 76.4-19.7 14.2 0 53 23.5 88.5 20.7 37.5-2.9 65.9-17.7 84.7-44.6-33.6-20.4-50.2-48.1-50-84.8m-56.6 164.2c-19.6-22.9-43.4-36.3-69.5-34.3-2.2 27.6 8.1 52.1 25.6 71.9 15.9 18.5 43.8 33.5 67.9 34.9.8-10.6 3.3-40.1-24-72.5"/><glyph glyph-name="windows" unicode="" d="m0 354.3 183.6 25.3V202.2H0zM0 29.7v149.9h183.6V4.4zm203.8-28v177.9H448V-32zm0 380.6L448 416V202.2H203.8z"/><glyph glyph-name="android" unicode="" horiz-adv-x="576" d="M420.55 146.07c-13.246 0-24 10.754-24 24s10.754 24 24 24 24-10.754 24-24-10.754-24-24-24m-265.1 0c-13.246 0-24 10.754-24 24s10.754 24 24 24 24-10.754 24-24-10.754-24-24-24m273.7 144.48 47.94 83a9.95 9.95 0 0 1 1.69 5.563c0 5.518-4.48 10-10 10a9.97 9.97 0 0 1-8.96-5.563l-48.54-84.07c-37.574 16.852-79.22 26.227-123.037 26.227-43.816 0-85.95-9.375-123.523-26.226l-48.54 84.069a10 10 0 0 1-8.972 5.582c-5.52 0-10-4.481-10-10 0-2.059.635-3.991 1.702-5.582l47.94-83C64.53 245.78 8.24 162.45 0 64h576c-8.24 98.45-64.54 181.78-146.85 226.55"/><glyph glyph-name="linux" unicode="" d="M220.8 324.7c-1.1.6-3.1.4-3.4 1.7-.2.4.2.9.6 1.1 1.6.9 3.8.6 5.5-.1 1.3-.6 3.4-1.5 3.2-2.9-.1-1.1-1.8-1.5-2.9-1.5-1.2 0-2 1.2-3 1.7m-21.9-1.7c-1-.1-2.7.4-2.8 1.4-.2 1.4 1.9 2.3 3.2 2.9 1.7.7 3.9 1 5.5.1.4-.2.8-.7.6-1.1-.4-1.2-2.4-1-3.5-1.6-1-.5-1.8-1.7-3-1.7M420 44.2c11.1-12.4 15.9-21.5 15.5-29.7C435 6.3 429 .7 421.6-3.8c-14.9-9-37.3-15.8-50.9-32.2-14.2-16.9-31.7-26.6-48.3-27.9-16.5-1.3-32 6.3-40.3 23v.1c-1.1 2.1-1.9 4.4-2.5 6.7-21.5-1.2-40.2 5.3-55.1 4.1-22-1.2-35.8-6.5-48.3-6.6-4.8-10.6-14.3-17.6-25.9-20.2-16-3.7-36.1 0-55.9 10.4-18.5 9.8-42 8.9-59.3 12.5-8.7 1.8-16.3 5-20.1 12.3-3.7 7.3-3 17.3 2.2 31.7 1.7 5.1.4 12.7-.8 20.8-.6 3.9-1.2 7.9-1.2 11.8 0 4.3.7 8.5 2.8 12.4 4.5 8.5 11.8 12.1 18.5 14.5s12.8 4 17 8.3c5.2 5.5 10.1 14.4 16.6 20.2-2.6 17.2.2 35.4 6.2 53.3 12.6 37.9 39.2 74.2 58.1 96.7 16.1 22.9 20.8 41.3 22.5 64.7 1.1 31.8-24.5 135.4 77.9 135.2 80.9-.1 76.3-85.4 75.8-131.3-.3-30.1 16.3-50.5 33.4-72 15.2-18 35.1-44.3 46.5-74.4 9.3-24.6 12.9-51.8 3.7-79.1 1.4-.5 2.8-1.2 4.1-2 1.4-.8 2.7-1.8 4-2.9 6.6-5.6 8.7-14.3 10.5-22.4 1.9-8.1 3.6-15.7 7.2-19.7M223.7 360.7c-3.2-7.2-3.9-14.9-2.9-21.8 3.6-.9 8.9-2.4 13-4.4-2.1 12.2 4.5 23.5 11.8 23 8.9-.3 13.9-15.5 9.1-27.3-.8-1.9-2.8-3.4-3.9-4.6 6.7-2.3 11-4.1 12.6-4.9 7.9 9.5 10.8 26.2 4.3 40.4-9.8 21.4-34.2 21.8-44-.4M183 372.2c-18.9 0-24-37.5-8.4-52.1 7.8 5.7 6.9 4.7 5.9 5.5-8 6.9-6.6 27.4 1.8 28.1 6.3.5 10.8-10.7 9.6-19.6 3.1 2.1 6.7 3.6 10.2 4.6 1.7 19.3-9 33.5-19.1 33.5m-13.6-60.7q-6.3-4.95-4.2-12.3c1.5-4.9 6.1-10.5 14.7-15.3 7.8-4.6 12-11.5 20-15 2.6-1.1 5.7-1.9 9.6-2.1 18.4-1.1 27.1 11.3 38.2 14.9 11.7 3.7 20.1 11 22.7 18.1 3.2 8.5-2.1 14.7-10.5 18.2-11.3 4.9-16.3 5.2-22.6 9.3-10.3 6.6-18.8 8.9-25.9 8.9-14.4 0-23.2-9.8-27.9-14.2-.5-.5-7.9-5.9-14.1-10.5m3.3-334c2.1 20.5-31.5 49-41 68.9L112.1 82c-6.8 9.2-13.8 14.8-21.9 16-7.7 1.2-12.6-1.4-17.7-6.9-4.8-5.1-8.8-12.3-14.3-18-7.8-6.5-9.3-6.2-19.6-9.9-6.3-2.2-11.3-4.6-14.8-11.3-2.7-5-2.1-12.2-.9-20 1.2-7.9 3-16.3.6-23.9v-.2c-5-13.7-5-21.7-2.6-26.4 7.9-15.4 46.6-6.1 76.5-21.9 31.4-16.4 72.6-17.1 75.3 18m-1.4 25.9c37.6-25.7 82.2-15.7 114.3 7.2 3.2 11 6.3 21.3 6.8 29 .8 15.2 1.6 28.7 4.4 39.9 3.1 12.6 9.3 23.1 21.4 27.3 2.3 21.1 18.7 21.1 38.3 12.5 18.9-8.5 26-16 22.8-26.1 1 0 2 .1 4.2 0 5.2 16.9-14.3 28-30.7 34.8 2.9 12 2.4 24.1-.4 35.7-6 25.3-22.6 47.8-35.2 59-2.3.1-2.1-1.9 2.6-6.5 11.6-10.7 37.1-49.2 23.3-84.9-3.9 1-7.6 1.5-10.9 1.4-5.3 29.1-17.5 53.2-23.6 64.6-11.5 21.4-29.5 65.3-37.2 95.7-4.5-6.4-12.4-11.9-22.3-15-4.7-1.5-9.7-5.5-15.9-9-13.9-8-30-8.8-42.4 1.2-4.5 3.6-8 7.6-12.6 10.3-1.6.9-5.1 3.3-6.2 4.1-2-37.8-27.3-85.3-39.3-112.7-8.3-19.7-13.2-40.8-13.8-61.5-21.8 29.1-5.9 66.3 2.6 82.4 9.5 17.6 11 22.5 8.7 20.8-8.6-14-22-36.3-27.2-59.2-2.7-11.9-3.2-24 .3-35.2s11.1-21.5 24.6-29.9c0 0 24.8-14.3 38.3-32.5 7.4-10 9.7-18.7 7.4-24.9-2.5-6.7-9.6-8.9-16.7-8.9 4.8-6 10.3-13 14.4-19.6m257.4 11.5c.3 5.1-3.1 13-13.7 24.6-10 11.3-7.2 33.1-17.1 41.6-6.9 6-13.6 5.4-22.6 5.1-7.7-8.8-25.8-19.6-38.4-16.3-11.5 2.9-18 16.3-18.8 29.5-.3-.2-.7-.3-1-.5C310 95 306 88.1 303.4 77.8c-2.5-10.2-3.4-23.5-4.2-38.7-.7-11.8-6.2-26.4-9.9-40.6-3.5-13.2-5.8-25.2-1.1-36.3 7.2-14.5 19.5-20.4 33.7-19.3s30.4 9.8 43.6 25.5c22 26.6 62.3 29.7 63.2 46.5M173.3 299.3c-3.5 2.8-3.1 6.6-1.7 6.5 2.4-.3 2.8-3.5 4.3-4.9 2-1.9 4.6-4.4 7.7-6.9 6.2-4.9 14.5-9.7 24.9-9.7s22.5 6 29.9 10.2c4.2 2.4 9.5 6.6 13.9 9.8 3.4 2.5 3.2 5.4 6 5.1s.8-3.2-3.1-6.6-9.9-7.8-14.8-10.4c-9.3-4.9-20.2-10.8-31.8-10.8-11.5 0-20.7 5.4-27.3 10.6-3.3 2.6-6 5.2-8 7.1"/><glyph glyph-name="dribbble" unicode="" horiz-adv-x="512" d="M256 440c136.748 0 248-111.252 248-248S392.748-56 256-56 8 55.252 8 192s111.252 248 248 248m163.97-114.366c-4.466-6.041-39.963-51.546-118.284-83.522 7.437-15.222 12.865-27.574 18.617-41.615 70.485 8.864 140.52-5.34 147.502-6.818-.466 49.998-18.332 95.909-47.835 131.955m-23.549 24.496c-52.095 46.219-122.885 63.682-190.061 47.49 5.854-7.84 44.328-60.233 79.04-124.009 75.323 28.233 107.211 71.092 111.021 76.519m-230.48 33.25c-59.264-27.953-103.562-82.585-117.298-148.318 9.475-.125 96.747-.504 195.834 25.81-35.099 62.392-72.951 114.85-78.536 122.509zM44.17 191.677c0-54.407 20.624-104.082 54.457-141.636 34.337 58.78 103.932 120.731 180.53 142.306-5.316 12.034-11.11 24.081-17.173 35.95-105.786-31.66-208.438-30.337-217.706-30.146a213 213 0 0 1-.108-6.474m81.807-167.112c62.754-48.936 144.656-56.896 212.769-27.883-3.15 18.585-15.45 83.355-45.19 160.639-85.4-29.135-145.451-87.524-167.579-132.756m248.38-8.49c47.522 32.134 81.353 83.037 90.795 141.978-7.247 2.287-65.567 19.682-131.947 9.056 27.706-76.137 38.98-138.147 41.152-151.033z"/><glyph glyph-name="skype" unicode="" d="M424.7 148.2c14.6-18.9 23.3-42.5 23.2-68.1 0-61.8-50.2-112-112-112-25.6 0-49.2 8.7-68.2 23.3-14.1-3-28.9-4.7-43.8-4.7C110.5-13.3 18.6 78.5 18.6 192c0 14.9 1.8 29.8 4.7 43.8C8.7 254.7 0 278.3 0 304c0 61.8 50.2 112 112 112 25.7 0 49.3-8.7 68.3-23.4 14.1 3 28.9 4.7 43.8 4.7 113.4 0 205.3-91.8 205.3-205.3 0-14.9-1.8-29.8-4.7-43.8M230.1 56.7c54.9 0 112 27.4 112 86.5 0 50.8-49.3 68.3-90.7 77.6-48.3 11.2-69.1 13.2-69.1 33 0 15.5 16.3 22.5 42 22.5 45.8 0 46.7-33.5 75-33.5 18.9 0 30.3 14.9 30.3 31.8 0 33.5-55.7 55.4-110.8 55.4-50.5 0-109.1-21.9-109.1-81.1 0-65.2 55.3-71.8 117.8-87.2 26-6.4 42-9.3 42-28 0-14.9-16.6-26.3-42.3-26.3-54 0-56.9 44.9-88.1 44.9-20.5 0-29.5-14.6-29.5-30.6 0-35.8 54.9-65 120.5-65"/><glyph glyph-name="foursquare" unicode="" horiz-adv-x="368" d="M323.1 445c40 0 50.7-22.8 42.2-65.2l-48.6-243c-3.7-14.5-9.2-39.7-44.3-39.7H189c-3.4 0-3.7.3-6.8-3.1 0 0-2.2-2.5-131.1-151.9C41-69.6 24.4-67.5 18.2-65 12.1-62.6 0-55.2 0-34.9v433.801c0 17.8 12.4 46.1 49.9 46.1zm-16.3-73.8c2.1 9.8-5.3 17.5-13.5 17.5h-219c-9.8 0-16.6-8.9-16.6-16.6V33.3c0-.9.9-1.2 1.8-.3 80.6 96.9 89.5 108.3 89.5 108.3 9.3 10.8 13 12.6 26.5 12.6H249c10.1 0 16 8.6 16.9 13.5.9 5 9.6 49.9 11.4 58.8 1.8 9-6.5 18.2-14.8 18.2h-90.4c-12 0-20.6 8.6-20.6 20.6v13c0 12 8.6 20.3 20.6 20.3h106.4c7.4 0 15.7 6.7 16.9 13.2z"/><glyph glyph-name="trello" unicode="" d="M392.3 416c30.8-.2 55.7-25.2 55.6-56V24c0-30.8-24.9-55.8-55.7-56H56C25.1-32 0-6.9 0 24c0 340-.1 336 0 336 0 30.9 25.1 56 56.1 56zM197 76.7h.1v254.2c0 14.9-12.1 26.9-26.9 26.9H87.3c-14.9 0-26.9-12.1-26.9-26.9V76.7c.1-14.8 12.2-26.7 27-26.6h82.7c14.8 0 26.7 11.9 26.9 26.6m193.1 112v142.1c0 14.9-12.1 26.9-26.9 26.9h-81.1c-14.8 0-26.8-12.1-26.8-26.9V188.7c0-14.9 12.1-26.9 26.9-26.9h81c14.9 0 26.9 12.1 26.9 26.9"/><glyph glyph-name="gratipay" unicode="" horiz-adv-x="496" d="M248 440c136.9 0 248-111.1 248-248S384.9-56 248-56 0 55.1 0 192s111.1 248 248 248m114.6-226.4c8.8 12 19.1 50.4-13.8 72-27.7 18.1-54.2 4.2-68.1-11.9-15.1-16.9-45.8-17.9-61.7 0-13.9 16.1-40.4 30-68.5 11.9-32.7-21.6-22.3-60.1-13.6-72L249.6 60.901z"/><glyph glyph-name="vk" unicode="" horiz-adv-x="576" d="M545 330.3c-7.4-34.3-79.3-135.5-79.4-135.6-6.2-10-8.7-15 0-26.2 3.4-4.8 79.1-76.6 90.3-111.5 4.9-16.6-3.6-25-20.4-25h-58.9c-22.4 0-29 17.9-69 57.9-35 33.7-50 38.1-58.7 38.1-18.8 0-15.4-6.3-15.4-73.1 0-14.5-4.6-22.9-42.1-22.9-62.4 0-131 37.9-179.7 107.8-73.1 102.4-93.1 179.9-93.1 195.5 0 8.8 3.4 16.7 20.2 16.7h58.9c15.1 0 20.8-6.6 26.6-22.9 28.8-84 77.4-157.4 97.4-157.4 7.5 0 10.9 3.5 10.9 22.5V281c-2.2 40-23.4 43.3-23.4 57.5 0 6.5 5.6 13.5 15 13.5h92.6c12.4 0 16.6-6.7 16.6-21.7V213.6c0-12.5 5.7-16.9 9.4-16.9 7.5 0 13.8 4.4 27.5 18.1 42.4 47.4 72.4 120.5 72.4 120.5 3.7 8.8 10.6 16.7 25.6 16.7h58.9c17.8 0 21.5-9.2 17.8-21.7"/><glyph glyph-name="weibo" unicode="" horiz-adv-x="512" d="M407 270.4c7.6 24-13.4 46.8-37.4 41.7-22-4.8-28.8 28.1-7.1 32.8 50.1 10.9 92.3-37.1 76.5-84.8-6.8-21.2-38.8-10.8-32 10.3M214.8 1.3C108.5 1.3 0 52.7 0 137.6c0 44.3 28 95.4 76.3 143.7C176 381 279.5 382.2 249.9 287c-4-13.1 12.3-5.7 12.3-6 79.5 33.6 140.5 16.8 114-51.4-3.7-9.4 1.1-10.9 8.3-13.1C520.2 174.2 419.3 1.3 214.8 1.3m143.7 146.3c-5.4 55.7-78.5 94-163.4 85.7-84.8-8.6-148.8-60.3-143.399-116 5.4-55.7 78.5-94 163.399-85.7 84.8 8.6 148.801 60.3 143.4 116m-10.6 265.3c102.3 21.6 189.3-74.5 157.399-174.301-8.3-25-44.8-12.2-37.4 12 23.1 71.2-39.4 139.2-111.7 124-25.1-5.4-34.2 32.7-8.3 38.3zm-78.5-311c-17.1-38.8-66.8-60-109.101-46.3-40.8 13.1-58 53.4-40.3 89.7 17.7 35.4 63.1 55.4 103.4 45.1 42-10.8 63.1-50.2 46-88.5zm-86.3 30c-12.9 5.4-30-.3-38-12.9-8.3-12.9-4.3-28 8.6-34 13.1-6 30.8-.3 39.1 12.9 8 13.1 3.7 28.3-9.7 34m32.6 13.4c-5.1 1.7-11.4-.6-14.3-5.4-2.9-5.1-1.4-10.6 3.7-12.9 5.1-2 11.7.3 14.6 5.4 2.8 5.2 1.1 10.9-4 12.9"/><glyph glyph-name="renren" unicode="" horiz-adv-x="512" d="M214 278.9c0-110.4-61-205.4-147.6-247.4C30 74.8 8 130.3 8 191.4c0 122.699 89.1 224.399 206 244.1zM255-56c-42.9 0-83.3 11-118.5 30.4C193.7 10.5 239.9 65.1 255 129c15.5-63.9 61.7-118.5 118.8-154.7C338.7-45 298.3-56 255-56m190.6 87.5C359 73.5 298 168.4 298 278.9v156.6c116.9-19.7 206-121.4 206-244.1 0-61.1-22-116.601-58.4-159.9"/><glyph glyph-name="pagelines" unicode="" horiz-adv-x="384" d="M384 135.3c-55.1-136.7-187.1-54-187.1-54C156.4-.5 89.5-53.099 12.299-53.4c-16.1 0-16.6 24.4 0 24.4 64.4.3 120.5 42.7 157.2 110.1-41.1-15.899-118.6-27.899-161.6 82.2 109 44.901 159.1-11.2 178.3-45.5 9.9 24.401 17 50.901 21.6 79.7 0 0-139.7-21.9-149.5 98.1 119.1 47.9 152.6-76.699 152.6-76.699 1.6 16.7 3.3 52.6 3.3 53.4 0 0-106.3 73.7-38.1 165.2 124.6-43 61.4-162.4 61.4-162.4.5-1.6.5-23.8 0-33.4 0 0 45.2 89 136.4 57.5-4.2-134-141.9-106.4-141.9-106.4-4.4-27.4-11.2-53.4-20-77.5 0 0 83 91.8 172 20z"/><glyph glyph-name="stack-exchange" unicode="" d="M17.7 115.7h412.7v-22c0-37.7-29.3-68-65.3-68h-19L259.3-64v89.7H83c-36 0-65.3 30.3-65.3 68zm0 23.6v85h412.7v-85zm0 109.4v85h412.7v-85zM365 448c36 0 65.3-30.3 65.4-67.7V358H17.7v22.3C17.7 417.7 47 448 83 448z"/><glyph glyph-name="vimeo-square" unicode="" d="M400 416c26.5 0 48-21.5 48-48V16c0-26.5-21.5-48-48-48H48C21.5-32 0-10.5 0 16v352c0 26.5 21.5 48 48 48zm-16.2-149.6c1.9 41.6-13.6 63-46.5 64-44.3 1.4-74.4-23.6-90.1-75.1 19.6 8.4 48.6 10.6 45.2-22.2-.9-11.1-8.1-27.1-21.5-48.3-37.2-58.7-46.3-39.1-66.8 90.5-5.8 36.5-21.1 53.5-46 51.1-22-2-57.2-38-94.1-70.4l15-19.4c14.3 10.1 22.7 15.1 25.1 15.1 20.8 0 31.5-54.1 56.7-146.4 12.9-34.4 28.6-51.6 47.3-51.6 30.1 0 66.9 28.3 110.4 84.8 42.1 54.1 63.9 96.8 65.3 127.9"/><glyph glyph-name="slack" unicode="" d="M94.12 132.9c0-25.9-21.16-47.06-47.06-47.06S0 107 0 132.9s21.16 47.06 47.06 47.06h47.06zm23.72 0c0 25.9 21.16 47.06 47.06 47.06s47.06-21.16 47.06-47.06V15.059c0-25.9-21.16-47.06-47.06-47.06s-47.06 21.16-47.06 47.06zm47.06 188.98c-25.9 0-47.06 21.16-47.06 47.06S139 416 164.9 416s47.06-21.16 47.06-47.06v-47.06zm0-23.72c25.9 0 47.06-21.16 47.06-47.06s-21.16-47.06-47.06-47.06H47.059c-25.9 0-47.06 21.16-47.06 47.06s21.16 47.06 47.06 47.06zm188.98-47.06c0 25.9 21.16 47.06 47.06 47.06S448 277 448 251.1s-21.16-47.06-47.06-47.06h-47.06zm-23.72 0c0-25.9-21.16-47.06-47.06-47.06s-47.06 21.16-47.06 47.06v117.841c0 25.9 21.16 47.06 47.06 47.06s47.06-21.16 47.06-47.06zM283.1 62.12c25.9 0 47.06-21.16 47.06-47.06S309-32 283.1-32s-47.06 21.16-47.06 47.06v47.06zm0 23.72c-25.9 0-47.06 21.16-47.06 47.06s21.16 47.06 47.06 47.06h117.841c25.9 0 47.06-21.16 47.06-47.06s-21.16-47.06-47.06-47.06z"/><glyph glyph-name="wordpress" unicode="" horiz-adv-x="512" d="M61.7 278.6 163.2.6C92.2 35 43.3 107.8 43.3 192c0 30.9 6.6 60.1 18.4 86.6m337.9-75.9c0-18.2-7-39.3-16-68.7l-21.2-70.9-76.9 228.7c12.8.7 24.3 2 24.3 2 11.4 1.3 10.1 18.2-1.4 17.5 0 0-34.5-2.7-56.7-2.7-20.9 0-56 2.7-56 2.7-11.4.7-12.8-16.8-1.3-17.5 0 0 10.8-1.3 22.3-2l33.1-90.8-46.6-139.6-77.5 230.399c12.8.7 24.3 2 24.3 2 11.4 1.3 10.1 18.2-1.4 17.5 0 0-34.5-2.7-56.7-2.7-4 0-8.7.1-13.7.3 38.1 57.8 103.5 95.9 177.8 95.9 55.401 0 105.8-21.2 143.7-55.9-1 .1-1.9.2-2.8.2-20.9 0-35.7-18.2-35.7-37.8 0-17.5 10.1-32.4 20.9-49.9 8.1-14.2 17.5-32.4 17.5-58.7zm-139.9-29.3L325.1-5.8c.4-1 .9-2 1.5-2.9-22.1-7.8-45.8-12.1-70.6-12.1-20.9 0-41 3.1-60.1 8.7zm183 120.7c16.6-30.3 26-65.1 26-102.1 0-78.5-42.5-147-105.8-183.9l65 187.9c12.2 30.4 16.2 54.6 16.2 76.2 0 7.9-.5 15.1-1.4 21.9M504 192C504 55.2 392.7-56 256-56 119.2-56 8 55.3 8 192c0 136.8 111.2 248 248 248 136.7 0 248-111.2 248-248m-11.4 0c0 130.5-106.199 236.6-236.6 236.6-130.5 0-236.6-106.1-236.6-236.6S125.599-44.6 256-44.6c130.5 0 236.6 106.1 236.6 236.6"/><glyph glyph-name="openid" unicode="" d="m271.5 16-68-32C88.5-5.7 0 55.5 0 129.8c0 71.5 82.5 131 191.7 144.3v-43c-71.5-12.5-124-53-124-101.3 0-51 58.5-93.3 135.7-103v340l68 33.2V16zM448 157l-131.3 28.5 36.8 20.7c-19.5 11.5-43.5 20-70 24.8v43c46.2-5.5 87.7-19.5 120.3-39.3l35 19.8z"/><glyph glyph-name="yahoo" unicode="" horiz-adv-x="512" d="M223.69 306.94h93.58L176.36-32H82.19l38.57 89.81L14.93 306.94H111l56-143.17zm105.4-135.79c32.133 0 58.22-26.088 58.22-58.22s-26.087-58.22-58.22-58.22-58.22 26.088-58.22 58.22 26.087 58.22 58.22 58.22M394.65 416h104.42l-92.63-223.47H301.65z"/><glyph glyph-name="google" unicode="" horiz-adv-x="488" d="M488 186.2C488 44.7 391.1-56 248-56 110.8-56 0 54.8 0 192s110.8 248 248 248c66.8 0 123-24.5 166.3-64.9l-67.5-64.9C258.5 395.4 94.3 331.4 94.3 192c0-86.5 69.1-156.6 153.7-156.6 98.2 0 135 70.4 140.8 106.9H248v85.299h236.1c2.3-12.7 3.9-24.9 3.9-41.4z"/><glyph glyph-name="reddit" unicode="" horiz-adv-x="512" d="M201.5 142.5c-13.8 0-24.9 11.1-24.9 24.6 0 13.8 11.1 24.9 24.9 24.9 13.6 0 24.6-11.1 24.6-24.9 0-13.6-11.1-24.6-24.6-24.6M504 192C504 55 393-56 256-56S8 55 8 192s111 248 248 248 248-111 248-248m-132.3 41.2c-9.4 0-17.7-3.9-23.8-10-22.4 15.5-52.6 25.5-86.1 26.6l17.4 78.3 55.4-12.5c0-13.6 11.1-24.6 24.6-24.6 13.8 0 24.9 11.3 24.9 24.9s-11.1 24.9-24.9 24.9c-9.7 0-18-5.8-22.1-13.8l-61.2 13.6c-3 .8-6.1-1.4-6.9-4.4l-19.1-86.4c-33.2-1.4-63.1-11.3-85.5-26.8-6.1 6.4-14.7 10.2-24.1 10.2-34.9 0-46.3-46.9-14.4-62.8-1.1-5-1.7-10.2-1.7-15.5 0-52.6 59.2-95.2 132-95.2 73.1 0 132.3 42.6 132.3 95.2 0 5.3-.6 10.8-1.9 15.8 31.3 16 19.8 62.5-14.9 62.5M302.8 117c2.2 2.2 6.1 2.2 8.3 0 2.5-2.5 2.5-6.4 0-8.6-22.9-22.8-87.4-22.8-110.2 0-2.5 2.2-2.5 6.1 0 8.6 2.2 2.2 6.1 2.2 8.3 0 17.5-17.9 75.4-18.2 93.6 0m7.7 75c13.9 0 24.9-11.1 24.9-24.9 0-13.5-11.1-24.6-24.9-24.6-13.5 0-24.6 11-24.6 24.6 0 13.8 11 24.9 24.6 24.9"/><glyph glyph-name="reddit-square" unicode="" d="M283.2 102.5c2.7-2.7 2.7-6.8 0-9.2-24.5-24.5-93.8-24.6-118.4 0-2.7 2.4-2.7 6.5 0 9.2 2.4 2.4 6.5 2.4 8.9 0 18.7-19.2 81-19.6 100.5 0 2.4 2.3 6.6 2.3 9 0m-91.3 53.8c0-14.6-11.9-26.5-26.5-26.5-14.9 0-26.8 11.9-26.8 26.5 0 14.9 11.9 26.8 26.8 26.8 14.6 0 26.5-11.9 26.5-26.8m90.7 26.8c14.9 0 26.8-11.9 26.8-26.8 0-14.6-11.9-26.5-26.8-26.5-14.6 0-26.5 11.9-26.5 26.5 0 14.9 11.9 26.8 26.5 26.8M448 368V16c0-26.5-21.5-48-48-48H48C21.5-32 0-10.5 0 16v352c0 26.5 21.5 48 48 48h352c26.5 0 48-21.5 48-48m-99.7-140.6c-10.1 0-19-4.2-25.6-10.7-24.1 16.7-56.5 27.4-92.5 28.6l18.7 84.2 59.5-13.4c0-14.6 11.9-26.5 26.5-26.5 14.9 0 26.8 12.2 26.8 26.8s-11.9 26.8-26.8 26.8c-10.4 0-19.3-6.2-23.8-14.9l-65.7 14.6c-3.3.9-6.5-1.5-7.4-4.8l-20.5-92.8c-35.7-1.5-67.8-12.2-91.9-28.9-6.5 6.8-15.8 11-25.9 11-37.5 0-49.8-50.4-15.5-67.5-1.2-5.4-1.8-11-1.8-16.7 0-56.5 63.7-102.3 141.9-102.3 78.5 0 142.2 45.8 142.2 102.3 0 5.7-.6 11.6-2.1 17 33.6 17.2 21.2 67.2-16.1 67.2"/><glyph glyph-name="stumbleupon-circle" unicode="" horiz-adv-x="496" d="M256 440c137 0 248-111 248-248S393-56 256-56 8 55 8 192s111 248 248 248m0-177.5c9.8 0 17.8-8 17.7-17.6v-20.6l22.9-10.7 34.1 10.1v23.7c0 40.3-34 72.6-74.7 72.6-40.5 0-74.7-32.1-74.7-72.1V139.5c0-9.9-8-17.8-17.8-17.8s-17.8 7.8-17.8 17.8v45.8H88.4v-46.5c0-41.4 33.5-74.9 74.9-74.9 41 0 74.9 33 74.9 73.9v106.9c0 9.8 8 17.8 17.8 17.8m167.6-123.6s0 .5.1 46.4h-57.3v-48c0-9.7-8-17.6-17.8-17.6s-17.8 7.8-17.8 17.6v47.1l-34.1-10.1-22.9 10.7v-46.8c0-41 33.7-74.2 74.9-74.2 41.4 0 74.9 33.5 74.9 74.9"/><glyph glyph-name="stumbleupon" unicode="" horiz-adv-x="512" d="M502.9 182v-69.7C502.9 50.2 452.6-.1 390.5-.1c-61.8 0-112.4 49.8-112.4 111.3v70.201l34.3-16 51.1 15.2V110c0-14.7 12-26.5 26.7-26.5S417 95.3 417 110v72zm-224.7 58.2v30.9c0 14.7-12 26.7-26.7 26.7s-26.7-12-26.7-26.7V110.8C224.8 49.5 174 0 112.4 0 50.3 0 0 50.3 0 112.3V182h86v-68.6c0-14.9 12-26.7 26.7-26.7s26.701 11.8 26.701 26.7v162.399c0 60 51.3 108.2 112.1 108.2 61 0 112.1-48.5 112.1-109v-35.6l-51.1-15.2z"/><glyph glyph-name="delicious" unicode="" d="M446.5 380c1-3.8 1.5-7.9 1.6-12V15.9c0-26.5-21.5-48-48-48h-352c-4.1 0-8.2.5-12 1.5-7.7 2-14.6 5.8-20.3 11q-1.8 1.65-3.3 3.3C7.3-10.6 3.5-3.7 1.5 4 .5 7.8 0 11.9 0 16v352c0 26.5 21.5 48 48 47.9h352c4.1 0 8.2-.5 12-1.5 1.9-.4 3.7-1 5.4-1.7 1.9-.7 3.7-1.5 5.5-2.5 1.4-.7 2.7-1.5 4-2.4 1.1-.8 2.2-1.6 3.3-2.5 2.5-2 4.8-4.3 6.9-6.8 1.7-2.1 3.3-4.5 4.7-6.9 1.3-2.3 2.4-4.6 3.3-7.1.5-1.5 1-3 1.4-4.5M416 16v176H224v192H48c-8.8 0-16-7.2-16-16V192h192V0h176c8.8 0 16 7.2 16 16"/><glyph glyph-name="digg" unicode="" horiz-adv-x="512" d="M81.7 275.7V352h51V101.3H0v174.4zm0-133.4v92.3H50.9v-92.3zm297.2 133.4H512V32H378.9v40.8h81.8v28.5h-81.8zm81.8-133.4v92.3h-30.8v-92.3zm-235.6-41v174.4h133.301V32H225.1v40.8h82.1v28.5zm51.2 133.3v-92.3h30.8v92.3zM153.3 352h51.3v-51h-51.3zm0-76.3h51.3V101.3h-51.3z"/><glyph glyph-name="pied-piper-pp" unicode="" d="M205.3 273.4c0-21.1-14.2-38.1-31.7-38.1-7.1 0-12.8 1.2-17.2 3.7v68c4.4 2.7 10.1 4.2 17.2 4.2 17.5 0 31.7-16.9 31.7-37.8m52.6-67c17.4 0 31.7-17 31.7-38.1 0-20.9-14.3-37.8-31.7-37.8-7.1 0-12.8 1.2-17.2 3.7v68c4.4 2.7 10.1 4.2 17.2 4.2M448 368V16c0-26.5-21.5-48-48-48H48C21.5-32 0-10.5 0 16v352c0 26.5 21.5 48 48 48h352c26.5 0 48-21.5 48-48M185 192.9c41 0 74.2 35.6 74.2 79.6S226 352.1 185 352.1c-12 0-24.1-3.2-34.6-8.8h-45.7V137l51.8 10.099v50.6c8.6-3.1 18.1-4.8 28.5-4.8zm158.4-25.3c0 44-33.2 79.6-73.9 79.6-3.2 0-6.4-.2-9.6-.7-3.7-12.5-10.1-23.8-19.2-33.4-13.8-15-32.2-23.8-51.8-24.8V32l51.8 10.1v50.6c8.6-3.2 18.2-4.7 28.7-4.7 40.8 0 74 35.6 74 79.6"/><glyph glyph-name="pied-piper-alt" unicode="" horiz-adv-x="576" d="m244 202-27.7-5.7-1.7 4.9c6.7.5 12.7 3.7 19.3 3.7 3.8 0 6.9-.9 10.1-2.9M379.9 4.1c9.5 0 28.2-45.1 33-55.1-35.9-13.4-70.3-15.9-106-9.8L300-15.7c15.8 10.3 60.9 19.8 79.9 19.8M340.8 271c-7.6 3.5-63.9 6.4-98.8-10 6.3 11.8 13.2 17 25.9 21.8 27.3 10.3 40.2 30.5 58.9 51.1 11.9-8.4 12-24.6 31.6-23v-21.8l6.3-.3c37.4 14.4 74.7 30.2 106.6 54.6 48.3 36.8 52.9 50 81.3 100l2 2.6c-.6-14.1-6.3-27.3-12.4-39.9-30.5-63.8-78.7-100.3-146.8-116.7-12.4-2.9-26.4-3.2-37.6-8.9 1.4-9.8 13.2-18.1 13.2-23 0-3.4-5.5-7.2-7.5-8.6-11.2 12.9-16.1 19.3-22.7 22.1m214.7 177-.3-1.4-.6-.6.3.9zM496.3 65.9C516.4 31.7 540 11.6 569-14c-31-19.3-70.4-32.2-103.5-47.2-55.2 46.3-23 229.9-111.5 229.9-3.5-.7-2.4-.3-4.6-1.7 1.1-1.4 2.6-2.9 3.7-4 23.9-20.1 33.4-24.4 34.8-58.6l.3-9.5c.8-21.6-5.5-42.5-9.8-63.5-25.9.7-51.2-11-77.9-2.9-.7 5.9-1.1 30.9.3 41.1 1.4 9.5 33.6 29.9 33 43.7-5.5.6-9.2-2.6-12.4-6.9-13.3-19.5-47.2-41.9-71.3-41.9-16.6 0-56.3 71.5-76.4 85.9-3.2 2.3-5.2 5.4-7.8 8.6-16.1-3.8-139.4-32.2-147.4-32.2-6 0-11.5 4.9-11.5 10.9 0 5.5 3.401 10.7 8.901 11.8l139.6 30.4c-9.5 17.2 12.3 17.5 21.5 20.1 3.2.8 6.3 4 9.5 4 6.3 0 11.8-8.9 13.8-14.1 6.3 1.4 45.7 10.6 49.4 10.6 15.2 0 15.9-20.1 2.9-22.7l-52.3-11.5-.3-4.6c-.3-10.1 45.4-60.1 53.4-60.1 18.1 0 54.9 41.7 54.9 60.1 0 30.7-42.8 12.6-42.8 33.6 0 3.5 1.2 6.6 2.9 9.8l-19.5 5.5c13.1 13.6 13.8 31.7 10.9 50.3 14.7 2.9 26.7 4.6 41.4 4.6 56.9 0 45.7-8.6 65.5-54.3l14.4 7.2c-2.3-34.2-36.2-17.5-35.1-31l.3-6c74.7 2.9 116.1-58.6 150-115.5zM300.1 19.8h8.9L311.9-4l-11.8-3.4zm-68.7 150.4 13.8 3.5 31.3-50.9-21-13.8zm84.4-154.9c22.6 2.5 32.7 6.3 59.5 6.3.3-1.4.9-3.2.9-4.6 0-7.5-49.4-12.6-58.4-14.1z"/><glyph glyph-name="drupal" unicode="" d="M319.5 333.3C333 325 416 266.3 416 154c0-112-88.5-186-190.2-186C123.8-32 32 48.3 32 157.5c0 109 85 167.5 100.8 175.8 18.7 10.1 32.2 15.3 53.5 32.3 10.5 8.3 19.3 20.2 22 49.5 15.2-18.3 33.5-39.5 46.5-48.3 21.2-14 42.5-19.5 64.7-33.5M322 7.7c4.2 4.2 1.9 13.1-4.2 8.5-8.5-6.3-27.5-14-54.5-14-34.5 0-51.5 13.3-51.5 13.3-6.2 0-11.3-7.2-6.5-12C231.9-21 301.9-12.4 322 7.7m-54.5 52.6c-6.5-2.7-28.4-16.8-22.4-25 2.4-3.3 5.2-1.3 12.2 4.7 7.2 5.8 12 11 26.7 11 25.3 0 18.1-19.9 26.5-15.7 9.9 4.9-2.1 20.9-6.2 23.7-7.8 5.1-28.1 4.9-36.8 1.3M360 43c39.1-3.3 64.5 106 15.8 106-20 0-60.5-41.5-81.8-41.8-24.7-.5-59 49-108.5 48.5-66.4-.4-90.6-78.6-51.8-105.2 57.2-38.7 130.4 42.9 161.3 42 19.5-.7 49.8-48.5 65-49.5"/><glyph glyph-name="joomla" unicode="" d="M.6 355.9c0 33.3 26.8 60.1 59.8 60.1 30 0 54.5-21.9 59.2-50.2 32.6 7.6 67.1-.6 96.5-30l-44.3-44.3c-20.5 20.5-42.6 16.3-55.4 3.5-14.3-14.3-14.3-37.9 0-52.2l99.5-99.5-44-44.3c-87.7 87.2-49.7 49.7-99.8 99.7-26.8 26.5-35 64.8-24.8 98.9C20.4 303.4.6 327.3.6 355.9m129.5-116.4c28.5 28.4 81.3 80.8 99.6 99.9 26.6 26.6 64.5 35 98.3 25.1 4.1 29.1 29.2 51.6 59.5 51.6 33 0 59.8-26.9 59.8-60.1 0-30.3-22.7-55.4-51.9-59.5 9.6-33.6 2.3-70-28.9-101.2l-44 44.3C343 260 338.8 282.2 326 295c-14.3 14.3-37.6 14.3-51.9 0-10-10.1-89.7-89.8-99.7-99.8zM396.4 87.3c29.1-4.1 51.6-28.9 51.6-59.1 0-33.3-26.8-60.1-59.8-60.1-29.2 0-53.4 20.7-58.9 48.1-34.7-10.8-75.1-2.2-102.7 28l44 44.3C291 68 313.2 72.2 326 85c14.3 14.3 14.3 37.6 0 51.9l-99.7 99.7 44.3 44.3c104.5-104.4 87.7-87.5 99.5-99.7 25.4-25.4 34.5-61.2 26.3-93.9m-84.3 53.1c-87.3-87.3-67.4-67.7-99.5-99.7-25.7-25.4-61.5-34.2-94.2-26-6.1-26.9-30-46.7-58.6-46.7C26.8-32 0-5.2 0 28.1c0 28.3 19.5 52.2 46.2 58.2-8.5 33.1-.7 68.1 29.5 98.3l44-44.3c-20.1-20.1-16.3-42-3.2-55.4 14.3-14.3 37.6-14.3 51.9 0 49.3 49.4 12.7 13.4 99.7 99.8z"/><glyph glyph-name="behance" unicode="" horiz-adv-x="576" d="M232 210.8c43.6-12.3 64.7-45.2 64.7-89.7 0-72-60.5-102.9-124.9-102.9H0v354.4h167.1c60.7 0 113.301-17.2 113.301-87.8 0-35.8-16.6-58.8-48.4-74zM77.9 312.1v-82.7h79c27.8 0 47.5 12.1 47.5 42.2 0 32.6-25.3 40.5-53.4 40.5zm83.3-233.7c31.7 0 57.6 11.2 57.6 47 0 36.3-21.7 50.6-56 50.6H77.9V78.4zm358.5 240.7H376V354h143.7zM576 142.8c0-4.5-.3-9-.6-13.2H390.3c0-41.1 21.7-65.3 63-65.3 21.4 0 49 11.6 55.7 33.5h62.2c-19.1-58.7-58.8-86.3-120.101-86.3-81 0-131.3 54.8-131.3 134.7 0 77 53.1 135.8 131.3 135.8 80.5 0 124.9-63.3 124.9-139.2zM390.4 174h114.699c-3 34-20.8 54.8-56.2 54.8-33.8 0-56.2-21.1-58.5-54.8z"/><glyph glyph-name="behance-square" unicode="" d="M186.5 155c0-19.3-14-25.4-31.2-25.4h-45.1v52.9h46c18.6-.1 30.3-7.8 30.3-27.5m-7.7 82.3c0-16.3-10.7-22.9-25.8-22.9h-42.7v44.8h39.6c15.2 0 28.9-4.2 28.9-21.9m132.3-23.2c19.2 0 28.8-11.2 30.5-29.7h-62.2c1.2 18.3 13.4 29.7 31.7 29.7M448 368V16c0-26.5-21.5-48-48-48H48C21.5-32 0-10.5 0 16v352c0 26.5 21.5 48 48 48h352c26.5 0 48-21.5 48-48M271.7 263h77.8v18.9h-77.8zm-43-110.3c0 24.1-11.4 44.9-35 51.6 17.2 8.2 26.2 17.7 26.2 37 0 38.2-28.5 47.5-61.4 47.5H68v-192h93.1c34.9.2 67.6 16.9 67.6 55.9M380 167.5c0 41.1-24.1 75.4-67.6 75.4-42.4 0-71.1-31.8-71.1-73.6 0-43.3 27.3-73 71.1-73 33.2 0 54.7 14.9 65.1 46.8h-33.7c-3.7-11.9-18.6-18.1-30.2-18.1-22.4 0-34.1 13.1-34.1 35.3h100.2c.1 2.3.3 4.8.3 7.2"/><glyph glyph-name="steam" unicode="" horiz-adv-x="496" d="M496 192C496 55 384.8-56 247.6-56 133.8-56 38 20.3 8.6 124.4l95.2-39.3c6.4-32.1 34.9-56.4 68.9-56.4 39.2 0 71.9 32.4 70.2 73.5l84.5 60.2c52.1-1.3 95.8 40.9 95.8 93.5 0 51.6-42 93.5-93.7 93.5s-93.7-42-93.7-93.5v-1.2L176.6 169c-15.5.9-30.7-3.4-43.5-12.1L0 211.9C10.2 339.599 117.1 440 247.6 440 384.8 440 496 329 496 192M155.7 63.7c19.8-8.2 42.5 1.1 50.8 21 8.3 19.8-1.1 42.5-20.9 50.7l-31.5 13c12.2 4.6 26 4.8 38.9-.6 13-5.4 23.1-15.6 28.5-28.6s5.3-27.3-.1-40.3c-11.2-26.8-42.1-39.6-69-28.4a52.78 52.78 0 0 0-27.2 25.8zm173.8 129.9c-34.4 0-62.4 28-62.4 62.3s28 62.3 62.4 62.3 62.4-28 62.4-62.3-27.9-62.3-62.4-62.3m.1 15.6c25.9 0 46.9 21 46.9 46.8 0 25.9-21 46.8-46.9 46.8s-46.9-21-46.9-46.8c.1-25.8 21.1-46.8 46.9-46.8"/><glyph glyph-name="steam-square" unicode="" d="M185.2 91.5c7.7 18.5-1 39.7-19.6 47.4l-29.5 12.2c11.4 4.3 24.3 4.5 36.4-.5 12.2-5.1 21.6-14.6 26.7-26.7 5-12.2 5-25.6-.1-37.7-10.5-25.1-39.4-37-64.6-26.5-11.6 4.8-20.4 13.6-25.4 24.2l28.5-11.8c18.6-7.8 39.9.9 47.6 19.4M400 416c26.5 0 48-21.5 48-48V16c0-26.5-21.5-48-48-48H48C21.5-32 0-10.5 0 16v112.8l89.1-36.9c6-30 32.7-52.7 64.5-52.7 36.6 0 67.3 30.3 65.7 68.8l79 56.3c48.7-1.2 89.6 38.3 89.6 87.5 0 48.2-39.3 87.5-87.6 87.5s-87.6-39.3-87.6-87.5v-1.1l-55.4-80.2c-14.5.8-28.7-3.1-40.7-11.3L0 207.3V368c0 26.5 21.5 48 48 48zm-99.7-222.5c-32.2 0-58.4 26.1-58.4 58.3s26.2 58.3 58.4 58.3 58.4-26.2 58.4-58.3-26.2-58.3-58.4-58.3m.1 14.6c24.2 0 43.9 19.6 43.9 43.8s-19.6 43.8-43.9 43.8c-24.2 0-43.9-19.6-43.9-43.8s19.7-43.8 43.9-43.8"/><glyph glyph-name="spotify" unicode="" horiz-adv-x="496" d="M248 440c136.9 0 248-111.1 248-248S384.9-56 248-56 0 55.1 0 192s111.1 248 248 248M348.7 75.1c8.1 0 15.2 6.3 15.2 15.4s-3.6 12.6-9.7 16.5c-71.4 42.7-155.101 44.3-237 26.2-7.5-1.6-13.6-6.5-13.6-16.8 0-8.1 6.1-15.8 15.8-15.8 2.9 0 8 1.6 11.9 2.6C203 117.9 275.6 116.3 338 78.7c3.9-2.3 6.5-3.6 10.7-3.6m26.9 65.6c10.9 0 19.3 8.7 19.4 19.5 0 8.7-3.2 14.9-11.3 19.7-49.4 29.4-112.1 45.5-177 45.5-41.6 0-70-5.8-97.8-13.6-10.3-2.9-15.5-10-15.5-20.7s8.7-19.4 19.4-19.4c4.5 0 7.1 1.3 11.9 2.6 82.9 22.5 176.1 7.6 238.6-29.4 3.601-1.9 7.101-4.2 12.3-4.2m31 76.2c12.2 0 23.2 9.7 23.2 23.3 0 11.9-5.1 18.1-12.9 22.6-55.9 32.6-132.4 47.8-205.4 47.8-42.9 0-82.299-4.9-117.5-15.2-9-2.6-17.4-10.3-17.4-23.9 0-13.3 10.101-23.6 23.301-23.6 4.8 0 9.3 1.6 12.9 2.6 82.4 23 209.7 12.8 280.9-29.7 4.5-2.6 7.7-3.9 12.899-3.9"/><glyph glyph-name="deviantart" unicode="" horiz-adv-x="320" d="m320 354.8-98.2-179.1 7.4-9.5H320V38.5H159.1l-13.5-9.2-43.7-84c-.3 0-8.6-8.6-9.2-9.2H0v93.2l93.2 179.4-7.4 9.2H0v127.6h156l13.5 9.2 43.7 84c.3 0 8.6 8.6 9.2 9.2H320z"/><glyph glyph-name="soundcloud" unicode="" horiz-adv-x="640" d="m111.4 191.7 5.8-65-5.8-68.3c-.3-2.5-2.2-4.4-4.4-4.4s-4.2 1.9-4.2 4.4l-5.6 68.3 5.6 65c0 2.2 1.9 4.2 4.2 4.2 2.2 0 4.1-2 4.4-4.2m21.4 45.6c2.5 0 4.7-2.2 4.7-5l5.8-105.6-5.8-68.3c0-2.8-2.2-5-4.7-5-2.8 0-4.7 2.2-5 5l-5 68.3 5 105.6c.3 2.8 2.2 5 5 5m25.5 24.1c2.8 0 5.3-2.2 5.3-5.3l5.3-130-5.3-67.8c0-3.1-2.5-5.3-5.3-5.3-3.1 0-5.3 2.2-5.6 5.3l-4.4 67.8 4.4 130c.3 3.1 2.5 5.3 5.6 5.3M7.2 164.8c1.4 0 2.2-1.1 2.5-2.5l5.6-35.6-5.6-35c-.3-1.4-1.1-2.5-2.5-2.5S5 90.3 4.7 91.7l-4.7 35 4.7 35.6c.3 1.4 1.1 2.5 2.5 2.5m23.6 21.9c1.4 0 2.5-1.1 2.8-2.5l7.2-57.5-7.2-56.4c-.3-1.4-1.4-2.5-2.8-2.5s-2.5 1.1-2.5 2.8l-6.4 56.1 6.4 57.5c0 1.4 1.1 2.5 2.5 2.5m25.3 11.4c1.7 0 3.1-1.4 3.1-3.3l6.9-68.1-6.9-65.8c0-1.7-1.4-3.1-3.1-3.1-1.6 0-3 1.4-3.3 3.1L47 126.7l5.8 68.1c.2 1.9 1.6 3.3 3.3 3.3m25.3 2.2c1.9 0 3.6-1.4 3.9-3.6l6.4-70-6.4-67.8c-.3-2.2-2-3.6-3.9-3.6s-3.6 1.4-3.6 3.6L72 126.7l5.8 70c0 2.2 1.7 3.6 3.6 3.6m241.4 110.9c2.5-1.4 4.1-4.2 4.5-7.2l3.9-177.5-3.9-64.2c0-4.7-3.9-8.6-8.6-8.6s-8.6 3.9-8.9 8.6L308.1 94l-1.7 32.5 3.3 176.7v.8c.2 2.5 1.4 5 3.3 6.7 1.4 1.1 3.4 1.9 5.6 1.9 1.4 0 3.1-.6 4.2-1.4m-26.7-15.3c2.2-1.4 3.6-3.9 3.9-6.7l3.3-162.8-3.1-58.6-.3-6.701c0-2.3-.8-4.2-2.5-5.6-1.4-1.4-3.4-2.5-5.6-2.5-2.5 0-4.7 1.2-6.4 3.1-1.1 1.4-1.7 3-1.7 4.7v.3c-3.1 65.3-3.1 65.6-3.1 65.6l2.8 160.8.3 1.7c0 2.8 1.4 5.3 3.6 6.701 1.3.8 2.8 1.4 4.4 1.4s3-.6 4.4-1.4m-111.4-22.5c3.4 0 5.9-2.8 6.1-6.1l5-140.6-5-67.2c-.3-3.3-2.8-5.8-6.1-5.8-3 0-5.5 2.5-5.8 5.8l-4.4 67.2 4.4 140.6c0 3.3 2.7 6.1 5.8 6.1m376.7-62.8c43.3 0 78.6-35.3 78.5-78.9 0-43.3-35.3-78.3-78.6-78.3H343c-4.7.6-8.6 4.2-8.6 9.2v249.7c0 4.8 1.699 7 7.8 9.2 15.3 6.1 32.5 9.4 50.3 9.4 72.5 0 131.9-55.6 138.3-126.4 9.5 3.901 19.8 6.1 30.6 6.1m-296.7 60.3c4.2 0 7.2-3.3 7.5-7.8l3.9-136.7-3.9-65.6c0-4.2-3.3-7.5-7.5-7.5s-7.5 3.3-7.8 7.5l-3.3 65.6 3.3 136.7c.3 4.5 3.6 7.8 7.8 7.8m-53.6 7.8c3.6 0 6.4-3.1 6.7-6.7l4.4-145.3-4.4-66.9c-.3-3.6-3.1-6.4-6.7-6.4-3.3 0-6.1 2.8-6.4 6.4l-3.9 66.9 3.9 145.3c0 3.6 3.1 6.7 6.4 6.7m26.7-3.4c3.9 0 6.9-3 6.9-6.9l4.2-141.7-4.2-66.4c0-3.8-3.1-6.9-6.9-6.9s-6.6 3-6.9 6.9l-3.9 66.4 3.9 141.7c0 3.8 3 6.9 6.9 6.9"/><glyph glyph-name="vine" unicode="" horiz-adv-x="384" d="M384 193.3v-52.1c-18.4-4.2-36.9-6.1-52.1-6.1C295 57.7 228.9-8.7 206.8-21.1c-14-7.9-27.1-8.4-42.7.8C137-4 34.2 80.3 0 345.3h74.5C93.2 186.2 139 104.6 189.3 43.5c27.9 27.901 54.799 65.1 75.6 106.9-49.801 25.3-80.1 80.9-80.1 145.6 0 65.6 37.7 115.1 102.2 115.1 114.9 0 106.2-127.898 81.599-181.5 0 0-46.4-9.199-63.5 20.5 3.4 11.301 8.2 30.801 8.2 48.5 0 31.301-11.3 46.601-28.4 46.601-18.2 0-30.8-17.1-30.8-50 .1-79.2 59.4-118.7 129.9-101.9z"/><glyph glyph-name="codepen" unicode="" horiz-adv-x="512" d="M502.285 288.296c6.001-3.999 9.715-11.143 9.716-18.285v-156c0-7.142-3.715-14.286-9.715-18.285l-234-156.021c-8.06-4.96-16.584-4.915-24.571 0l-234 156.02C3.714 99.726 0 106.87 0 114.013V270.01c0 7.142 3.714 14.286 9.714 18.285l234 156c8.06 4.96 16.584 4.915 24.571 0zM278 384.869V282.297l95.429-63.715 76.857 51.429zm-44 0L61.714 270.011l76.857-51.429 95.43 63.715zM44 228.868v-73.714l55.143 36.857zM234-.847v102.571l-95.429 63.716-76.857-51.43zm22 140.858 77.715 52-77.715 52-77.715-52zM278-.847 450.286 114.01l-76.857 51.43-95.43-63.716zm190 156.001v73.714l-55.143-36.857z"/><glyph glyph-name="jsfiddle" unicode="" horiz-adv-x="576" d="M510.634 210.538c45.689-25.334 68.372-74.56 56.832-122.634-12.103-50.42-55.548-86.66-108.212-87.293-84.03-1.012-168.079-.459-252.12-.48-30.322-.007-60.668-.493-90.959.539C68.081 2.306 24.399 36.534 10.568 82.102c-14.129 46.551 2.19 94.623 41.901 124.615 2.547 1.924 4.87 6.52 4.515 9.545-3.746 31.86 7.145 57.671 32.676 76.408 26.282 19.288 55.228 21.588 85.331 9.167 2.366-.975 4.64-2.177 7.824-3.685 16.522 27.533 38.122 48.652 65.492 63.902 92.86 51.74 210.954 8.312 246.85-91.645 5.558-15.477 6.745-32.608 9.097-49.095.717-5.028 1.654-8.155 6.38-10.777zm21.107-156.88c39.314 48.375 22.418 117.668-35.143 144.497-7.435 3.466-9.725 7.744-9.847 15.894-1.87 125.129-132.78 187.063-230.24 132.697-26.114-14.568-46.45-34.896-60.671-61.294-7.591-14.09-11.929-7.978-22.198-2.527-24.612 13.063-49.047 12.64-72.034-3.083-21.967-15.025-31.91-36.62-26.42-62.98 2.409-11.571-.914-17.064-10.096-23.138-38.19-25.257-53.088-74.86-34.186-116.105 18.436-40.23 51.314-59.663 95.175-59.995.7-.005 163.728-.546 163.728.155 56.886 0 113.778-.552 170.652.229 28.938.398 53.05 13.218 71.28 35.65m-87.789 80.499C438.103 103 409.33 79.06 377.286 79.061c-16.953.002-32.059 6.546-44.08 17.705-27.696 25.714-71.14 74.98-95.937 93.388-20.055 14.888-41.989 12.333-60.271-3.782-49.996-44.071 15.86-121.775 67.062-77.189 4.55 3.96 7.841 9.543 12.745 12.845 8.184 5.509 20.766.884 13.168-10.622-17.358-26.284-49.33-38.197-78.863-29.3-28.897 8.702-48.84 35.967-48.626 70.178 1.225 22.484 12.364 43.06 35.414 55.965 22.575 12.637 46.369 13.145 66.99-2.474 50.792-38.476 75.579-81.745 107.297-101.245 24.558-15.1 54.254-7.363 68.823 17.506 28.83 49.209-34.592 105.016-78.868 63.46-3.989-3.744-6.917-8.932-11.41-11.72-10.975-6.811-17.333 4.113-12.81 10.353 20.704 28.553 50.465 40.44 83.272 28.214 31.429-11.714 49.108-44.367 42.76-78.186"/><glyph glyph-name="rebel" unicode="" horiz-adv-x="512" d="M256.5-56C117.2-56 9 60.2 13.2 198.1c2.8 79.2 43.2 152.2 116.5 200.4.3 0 1.9.6 1.1-.8-5.8-5.5-111.3-129.8-14.1-226.4 49.8-49.5 90-2.5 90-2.5 38.5 50.1-.6 125.9-.6 125.9-10 24.9-45.7 40.1-45.7 40.1l28.8 31.8c24.4-10.5 43.2-38.7 43.2-38.7.8 29.6-21.9 61.4-21.9 61.4l44.6 50.7 44.3-50.1c-20.5-28.8-21.9-62.6-21.9-62.6 13.8 23 43.5 39.3 43.5 39.3l28.5-31.8c-27.4-8.9-45.4-39.9-45.4-39.9-15.8-28.5-27.1-89.4.6-127.3 32.4-44.6 87.7 2.8 87.7 2.8 102.7 91.9-10.5 225-10.5 225-6.1 5.5.8 2.8.8 2.8 50.1-36.5 114.6-84.4 116.2-204.8C500.9 47.799 399-56 256.5-56"/><glyph glyph-name="empire" unicode="" horiz-adv-x="496" d="M287.6 393.8c-10.8 2.2-22.1 3.3-33.5 3.6v18.2c78.1-2.2 146.101-44 184.601-106.6l-15.8-9.1c-6.1 9.7-12.7 18.8-20.2 27.1l-18-15.5c-26 29.6-61.4 50.7-101.9 58.4zM53.4 125.6c3.9-10.8 8.3-21.1 13.6-31.1l-15.8-9.1C34.1 117 24.1 153.5 24.1 192s9.9 75 27.1 106.5l15.8-9.099c-5.3-9.7-10-20.2-13.6-31l22.7-7.7c-6.4-18.3-9.7-38.2-9.7-58.7s3.6-40.4 10-58.7zM213.1 14l-4.7-23.8c10.8-1.9 22.2-3.3 33.5-3.6v-18.3C163.8-29.4 95.5 12.6 57 74.9l16 9.4c5.8-9.7 12.701-18.8 20.201-27.4l18 15.8c26.1-29.6 61.5-50.7 101.899-58.7M93.3 327.1c-7.5-8.3-14.1-17.5-20.1-27.2L57.4 309C95.9 371.6 163.9 413.4 242 415.6v-18.199c-11.4-.3-22.7-1.4-33.5-3.6l4.7-23.8c-40.5-7.7-75.9-28.8-101.9-58.4zM402.7 56.9c7.5 8.6 14.4 17.7 20.1 27.4l16.1-9.4C400.4 12.6 332.1-29.5 254-31.7v18.3c11.4.3 22.7 1.7 33.5 3.6L282.8 14c40.5 8 75.9 29.1 101.9 58.7zM496 192C496 55 385-56 248-56S0 55 0 192s111 248 248 248 248-111 248-248m-12.2 0c0 130.1-105.7 235.8-235.8 235.8S12.2 322.1 12.2 192 117.9-43.8 248-43.8 483.8 61.9 483.8 192m-39 106.6C462 267 471.9 230.5 471.9 192s-9.9-75-27.1-106.4L429 94.7c5.3 10 9.7 20.2 13.6 31l-23 7.7c6.4 18.3 10 38.2 10 58.7s-3.3 40.4-9.7 58.7l22.7 7.7c-3.6 10.8-8.3 21.3-13.6 31zm-183-177.7 13.3-66.7c-8.6-1.7-17.7-2.8-27.1-2.8s-18.5 1.1-27.1 2.8l13.3 66.7c-16.3 3.3-30.5 11.6-40.7 23.5l-51.2-44.8c-11.9 13.6-21.3 29.4-27.1 46.8l64.2 22.1c-2.5 7.4-3.9 15.2-3.9 23.5s1.4 16 3.9 23.5l-64.5 22.1c6.1 17.5 15.5 33.2 27.4 46.8l51.2-44.8c10.3 11.9 24.4 20.5 40.7 23.8l-13.3 66.4c8.6 2 17.7 2.8 27.1 2.8s18.5-.9 27.1-2.8l-13.3-66.4c16.3-3.3 30.5-11.9 40.7-23.8l51.2 44.8c11.9-13.6 21.3-29.4 27.4-46.8l-64.5-22.1c2.5-7.4 3.9-15.2 3.9-23.5s-1.4-16-3.9-23.5l64.2-22.1c-5.8-17.5-15.2-33.2-27.1-46.8l-51.2 44.8c-10.3-11.9-24.4-20.2-40.7-23.5"/><glyph glyph-name="git-square" unicode="" d="M100.59 113.76c48.57-3.31 58.95-2.11 58.95-11.94 0-20-65.55-20.06-65.55-1.52.01 5.09 3.29 9.4 6.6 13.46m27.95 116.64c30.96 0 31.76-44.47-.75-44.47-33 0-31.54 44.47.75 44.47M448 368V16c0-26.492-21.508-48-48-48H48C21.508-32 0-10.492 0 16v352c0 26.492 21.508 48 48 48h352c26.492 0 48-21.508 48-48m-227-69.31c0-14.49 8.38-22.88 22.86-22.88 14.74 0 23.13 8.39 23.13 22.88S258.62 321 243.88 321c-14.48 0-22.88-7.84-22.88-22.31M199.18 253h-49.55c-25 6.55-81.56 4.85-81.56-46.75 0-18.8 9.4-32 21.85-38.11C74.23 153.77 66.8 147 66.8 137.4c0-6.87 2.79-13.22 11.18-16.76-8.9-8.4-14-14.48-14-25.92C64 74.65 81.53 63 127.52 63c44.22 0 69.87 16.51 69.87 45.73 0 36.67-28.23 35.32-94.77 39.38l8.38 13.43c17-4.74 74.19-6.23 74.19 42.43 0 11.69-4.83 19.82-9.4 25.67l23.38 1.78zm84.34-109.84-13 1.78c-3.82.51-4.07 1-4.07 5.09v105.45h-52.6l-2.79-20.57c15.75-5.55 17-4.86 17-10.17V150c0-5.62-.31-4.58-17-6.87v-20.06h72.42zM384 133l-6.87 22.37c-40.93-15.37-37.85 12.41-37.85 16.73v60.72h37.85v25.41h-35.82c-2.87 0-2-2.52-2 38.63h-24.18c-2.79-27.7-11.68-38.88-34-41.42v-22.62c20.47 0 19.82.85 19.82-2.54v-66.57c0-28.72 11.43-40.91 41.67-40.91 14.45 0 30.45 4.83 41.38 10.2"/><glyph glyph-name="git" unicode="" horiz-adv-x="512" d="m216.29 289.61.04-34.55-37.41-2.84c7.27-9.36 15-22.37 15-41.07 0-77.89-91.43-75.47-118.7-67.89l-13.43-21.55c106.47-6.5 151.63-4.34 151.63-63 0-46.76-41.04-73.18-111.79-73.18C28.05-14.47 0 4.24 0 36.35c0 18.3 8.13 28.04 22.4 41.45C8.98 83.47 4.51 93.61 4.51 104.61c0 15.36 11.9 26.21 37 49.21-20 9.77-35 30.91-35 61C6.51 297.37 97 300.1 137 289.61zm-63.42-241.9c0 15.74-16.61 13.81-94.32 19.11-5.3-6.54-10.57-13.4-10.57-21.54 0-29.67 104.89-29.63 104.89 2.43m-50.81 134.58c52.02 0 50.74 71.16 1.2 71.16-51.66 0-54-71.16-1.2-71.16m133.3-100.51v32.1c26.75 3.66 27.24 2 27.24 11v119.51c0 8.5-2.05 7.38-27.24 16.26l4.47 32.92H324V124.86c0-6.51.4-7.32 6.51-8.14l20.73-2.84v-32.1zm52.45 244.31c-23.17 0-36.59 13.43-36.59 36.61s13.42 35.77 36.59 35.77c23.58 0 37-12.62 37-35.77s-13.42-36.61-37-36.61M512 97.54c-17.49-8.53-43.1-16.26-66.28-16.26-48.38 0-66.67 19.5-66.67 65.46v106.51c0 5.42 1.05 4.06-31.71 4.06v36.19c35.78 4.07 50 22 54.47 66.27h38.63c0-65.83-1.34-61.81 3.26-61.81H501v-40.65h-60.56v-97.15c0-6.92-4.92-51.41 60.57-26.84z"/><glyph glyph-name="hacker-news" unicode="" d="M0 416h448V-32H0zm21.2-197.2H21c.1.1.2.3.3.4 0-.1 0-.3-.1-.4m218-53.9L320 320h-34.8c-54.8-101.2-48.3-98.6-60.6-125.6-10.1 24.4-6.8 27.3-59.3 125.6H128l79.8-153.3V64h31.4z"/><glyph glyph-name="tencent-weibo" unicode="" horiz-adv-x="384" d="M72.3-47.8c1.4-19.9-27.6-22.2-29.7-2.9C31 79.2 73.7 188.8 144 262.5c-15.6 34 9.2 77.1 50.6 77.1 30.3 0 55.1-24.6 55.1-55.1 0-44-49.5-70.8-86.9-45.1C97.1 168.1 61.4 69.6 72.3-47.8M192 447.9c92 0 166.6-74.6 166.6-166.5 0-102.301-93.3-185.5-204-162.301-19 4.7-12.5 33.2 6.6 29.1 80.8-20.8 167.7 42.3 167.7 133.1 0 75.5-61.5 136.9-136.9 136.9C91 418.2 23.7 311.6 70 219c9-17.9-17.599-30.8-26.3-13.4-56 108.1 22.4 242.3 148.3 242.3"/><glyph glyph-name="qq" unicode="" d="M433.754 27.555c-11.526-1.393-44.86 52.74-44.86 52.74 0-31.344-16.136-72.246-51.051-101.785 16.842-5.192 54.843-19.167 45.803-34.421-7.316-12.343-125.51-7.88-159.633-4.037-34.122-3.844-152.314-8.306-159.632 4.037-9.044 15.25 28.918 29.214 45.784 34.415-34.92 29.54-51.059 70.445-51.059 101.792 0 0-33.334-54.134-44.86-52.741-5.37.65-12.423 29.644 9.347 99.704 10.262 33.024 21.995 60.478 40.145 105.779C60.682 349.936 108.982 447.994 224 448c113.737-.006 163.156-96.133 160.264-214.963 18.118-45.223 29.912-72.85 40.144-105.778 21.768-70.06 14.716-99.053 9.346-99.704"/><glyph glyph-name="weixin" unicode="" horiz-adv-x="576" d="M385.2 280.4c-92.4 0-165.4-69.1-165.3-154 0-14.2 2.2-27.9 6.2-40.8-6.2-.5-12.1-.8-18.3-.8-24.4 0-43.8 4.9-68.2 9.7l-68-34.1L90.9 119C42.3 153.1 13 197.2 13 250.6 13 343.2 100.5 416 207.7 416c95.6 0 179.7-58.3 196.3-136.7-6.2.8-12.4 1.1-18.8 1.1m-104.5 52.9c-14.7 0-29.2-9.7-29.3-24.4 0-14.5 14.5-24.2 29.3-24.2 14.5 0 24.2 9.7 24.2 24.2 0 14.7-9.7 24.4-24.2 24.4m-136.4-48.6c14.8 0 24.4 9.6 24.4 24.2 0 14.7-9.6 24.4-24.4 24.4-14.5 0-29.3-9.6-29.3-24.4 0-14.5 14.8-24.2 29.3-24.2M563 128.6c0-43.8-29-82.7-68.2-112.1l14.8-48.6-53.4 29.3c-19.7-4.8-39.3-9.9-58.6-9.9-92.6 0-165.4 63.4-165.4 141.3s72.7 141.3 165.4 141.3c87.5 0 165.4-63.4 165.4-141.3m-219.1 24.5c14.7 0 24.4 9.6 24.4 19.6 0 9.6-9.6 19.3-24.4 19.3-9.6 0-19.3-9.6-19.3-19.3 0-9.9 9.6-19.6 19.3-19.6m107.1 0c14.5 0 24.5 9.6 24.4 19.6 0 9.6-9.9 19.3-24.4 19.3-9.6 0-19.3-9.6-19.3-19.3 0-9.9 9.6-19.6 19.3-19.6"/><glyph glyph-name="slideshare" unicode="" horiz-adv-x="512" d="M187.7 294.3c34 0 61.7-25.7 61.7-57.7 0-31.7-27.7-57.7-61.7-57.7s-61.7 26-61.7 57.7c0 32 27.7 57.7 61.7 57.7m143.4 0c34.3 0 61.8-25.7 61.7-57.7 0-31.7-27.4-57.7-61.7-57.7-34 0-61.7 26-61.7 57.7 0 32 27.7 57.7 61.7 57.7m156.6-90c15.2 10.5 25.2-4 16.1-17.8-18.3-22.6-53.2-50.3-106.3-72 56.3-191.7-137.4-222.3-134.3-124 0 .7-.3 53.8-.3 93.5-4.301.8-8.6 2-13.7 3.1 0-40-.3-95.9-.3-96.6 3.1-98.2-190.601-67.6-134.301 124.1-53.2 21.7-88 49.4-106.3 72-9.1 13.7.9 28.301 16 17.7 2-1.399 4.3-2.899 6.3-4.3v198.3c0 27.401 20.6 49.7 46 49.7h359.1c25.4 0 46-22.299 46-49.7V200zm-30.5-19.2h.1v190.601c0 32.8-10.6 45.7-40.9 45.7H98.7c-31.7 0-40.6-10.8-40.6-45.7v-192.4c67.7-35.4 125.7-29.1 157.4-28 13.4.3 22-2.3 27.1-7.7 1.7-1.6 10-9.4 20.3-17.1 1.1 15.8 10 25.8 33.7 24.9 32.3-1.4 91.7-7.7 160.6 29.7z"/><glyph glyph-name="twitch" unicode="" horiz-adv-x="512" d="M391.17 344.53v-109.7h-38.63v109.7zM285 345V235.25h-38.63V345zM120.83 448h366.86V192L313.919 27.42h-77.25L140.139-64v91.42H24.309v329.16zm328.24-237.75v201.17H140.139V137.13h86.87v-64l67.6 64h77.24z"/><glyph glyph-name="yelp" unicode="" horiz-adv-x="384" d="m42.9 207.68 99.62-48.61c19.2-9.4 16.2-37.51-4.5-42.71L30.5 89.55a22.8 22.8 0 0 0-5.568-.685c-11.724 0-21.385 8.894-22.642 20.286a199 199 0 0 0-1.293 22.676c0 21.957 3.657 42.912 10.293 62.643 3.039 9.022 11.572 15.526 21.613 15.526 3.579 0 6.981-.843 9.997-2.316m44-239.25a22.77 22.77 0 0 0-9.924 18.845A22.73 22.73 0 0 0 82.82 2.52l74.21 82.4c14.31 15.811 40.51 5.201 39.81-16.099L192.94-42c-.414-12.21-10.436-22.008-22.746-22.008a23 23 0 0 0-3.874.329c-28.936 4.9-56.141 16.162-79.42 32.109M232.24 78.35c-11.3 18.11 6.2 40.41 26.51 33.91L364.17 78c9.144-3.041 15.73-11.685 15.73-21.845a22.9 22.9 0 0 0-2.14-9.695c-12.536-26.328-30.47-49.225-52.71-67.61-3.962-3.265-9.038-5.258-14.568-5.258-8.185 0-15.375 4.298-19.432 10.758zm148.33 132.23c1.213-2.799 1.934-5.9 1.934-9.142 0-10.438-6.97-19.262-16.504-22.068l-106.64-30.51c-20.5-5.9-37.1 17.01-25.2 34.71l62 91.92a22.81 22.81 0 0 0 18.95 10.062 22.76 22.76 0 0 0 15.05-5.663 197 197 0 0 0 50.41-69.31zM62.11 417.82c34.33 16.344 72.61 26.943 112.33 30.1.61.05 1.207.078 1.83.078 12.513 0 22.671-10.158 22.671-22.67V216.78c0-23.3-30.91-31.6-42.611-11.4L52.21 385.82a22.8 22.8 0 0 0-3.067 11.388c0 9.074 5.298 16.92 12.967 20.611z"/><glyph glyph-name="paypal" unicode="" horiz-adv-x="384" d="M111.4 152.1c-3.5-19.2-17.4-108.699-21.5-134-.3-1.8-1-2.5-3-2.5H12.3C4.7 15.6-.8 22.2.2 29.5l58.6 371.9c1.5 9.6 10.1 16.9 20 16.9 152.3 0 165.1 3.7 204-11.4 60.1-23.3 65.6-79.5 44-140.3-21.5-62.6-72.5-89.5-140.1-90.3-43.401-.7-69.5 7-75.3-24.2M357.1 296c28.4-21.2 30.3-57.8 23.8-92.6C364.4 119.9 309 91.1 238 91.1c-15 0-24.7 2.3-29.299-19.7-15.5-97.4-13.7-85.9-14.4-91.3-1.7-8.6-8.8-14.9-17.4-14.9h-63.5c-7.1 0-11.6 5.8-10.6 12.9 0 0 4.5 29.3 27.1 169.7.8 6.1 4.8 9.4 10.9 9.4 54 0 164.6-9.9 204.5 103.899 3.7 11.1 6.8 22.2 8.8 33.6.5 3.1 1.2 2.6 3 1.3z"/><glyph glyph-name="google-wallet" unicode="" d="M156.8 321.2c37.6-60.6 64.2-113.101 84.3-162.5-8.3-33.8-18.8-66.5-31.3-98.3-13.2 52.3-26.5 101.3-56 148.5 6.5 36.4 2.3 73.6 3 112.3M109.3 248c5 0 10-2.5 13-6.5 43.8-59.8 66.3-123.8 82.5-193.5H101.3c-20 69.5-49.5 133-91.7 187.3-4 5.2 0 12.7 6.5 12.7zm47.8 88h108.7C340.6 233 397 106 409-32H295.3c-8.2 133.5-69.7 260-138.2 368m251.8 68.5c19-67.5 31.1-139 31.1-212.6 0-69.5-9.5-142.5-25.3-203-10.9 92.5-42.4 184.6-90.6 270.8-4.2 50.5-13.3 99.5-26.5 146-1.2 5.3 2.5 10.3 7.8 10.3h88.3c7 0 13.4-4.7 15.2-11.5"/><glyph glyph-name="cc-visa" unicode="" horiz-adv-x="576" d="M470.1 216.7s7.6-37.2 9.3-45H446c3.3 8.9 16 43.5 16 43.5-.2-.3 3.3 9.1 5.3 14.9zM576 368V16c0-26.5-21.5-48-48-48H48C21.5-32 0-10.5 0 16v352c0 26.5 21.5 48 48 48h480c26.5 0 48-21.5 48-48M152.5 116.8 215.7 272h-42.5l-39.3-106-4.3 21.5-14 71.4c-2.3 9.9-9.4 12.7-18.2 13.1H32.7l-.7-3.1c15.8-4 29.9-9.8 42.2-17.1l35.8-135zm94.4-.2L272.1 272h-40.2l-25.1-155.4zm139.9 50.8c.2 17.7-10.6 31.2-33.7 42.3-14.1 7.1-22.7 11.9-22.7 19.2.2 6.6 7.3 13.4 23.1 13.4 13.1.3 22.7-2.8 29.9-5.9l3.6-1.7 5.5 33.6c-7.9 3.1-20.5 6.6-36 6.6-39.7 0-67.6-21.2-67.8-51.4-.3-22.3 20-34.7 35.2-42.2 15.5-7.6 20.8-12.6 20.8-19.3-.2-10.4-12.6-15.2-24.1-15.2-16 0-24.6 2.5-37.7 8.3l-5.3 2.5-5.6-34.9c9.4-4.3 26.8-8.1 44.8-8.3 42.2-.1 69.7 20.8 70 53M528 116.6 495.6 272h-31.1c-9.6 0-16.9-2.8-21-12.9l-59.7-142.5H426s6.9 19.2 8.4 23.3H486c1.2-5.5 4.8-23.3 4.8-23.3z"/><glyph glyph-name="cc-mastercard" unicode="" horiz-adv-x="576" d="M482.9 37.7c0-6.8-4.6-11.7-11.2-11.7-6.8 0-11.2 5.2-11.2 11.7s4.4 11.7 11.2 11.7c6.6 0 11.2-5.2 11.2-11.7M172.1 49.4c6.5 0 10.8-5.2 10.9-11.7 0-6.8-4.4-11.7-10.9-11.7-7.1 0-11.2 5.2-11.2 11.7s4.1 11.7 11.2 11.7m117.5.3c5.2 0 8.7-3 9.6-8.7h-19.1c.8 5.2 4.1 8.7 9.5 8.7m107.8-.3c6.8 0 11.2-5.2 11.2-11.7 0-6.8-4.4-11.7-11.2-11.7s-10.9 5.2-10.9 11.7 4.1 11.7 10.9 11.7m105.9-26.1c0-.3.3-.5.3-1.1 0-.3-.3-.5-.3-1.1-.3-.3-.3-.5-.5-.8-.3-.3-.5-.5-1.1-.5-.3-.3-.5-.3-1.1-.3-.3 0-.5 0-1.1.3-.3 0-.5.3-.8.5-.3.3-.5.5-.5.8-.3.5-.3.8-.3 1.1 0 .5 0 .8.3 1.1 0 .5.3.8.5 1.1.3.3.5.3.8.5.5.3.8.3 1.1.3.5 0 .8 0 1.1-.3.5-.3.8-.3 1.1-.5s.2-.6.5-1.1m-2.2-1.4c.5 0 .5.3.8.3.3.3.3.5.3.8s0 .5-.3.8c-.3 0-.5.3-1.1.3h-1.6v-3.5h.8V22h.3l1.1-1.4h.8zM576 367V15c0-26.5-21.5-48-48-48H48C21.5-33 0-11.5 0 15v352c0 26.5 21.5 48 48 48h480c26.5 0 48-21.5 48-48M64 227.4c0-76.5 62.1-138.5 138.5-138.5 27.2 0 53.9 8.2 76.5 23.1-72.9 59.3-72.4 171.2 0 230.5-22.6 15-49.3 23.1-76.5 23.1-76.4.1-138.5-62-138.5-138.2m224-108.8c70.5 55 70.2 162.2 0 217.5-70.2-55.3-70.5-162.6 0-217.5M145.7 42.3c0 8.7-5.7 14.4-14.7 14.7-4.6 0-9.5-1.4-12.8-6.5-2.4 4.1-6.5 6.5-12.2 6.5-3.8 0-7.6-1.4-10.6-5.4V56h-8.2V19.3h8.2c0 18.9-2.5 30.2 9 30.2 10.2 0 8.2-10.2 8.2-30.2h7.9c0 18.3-2.5 30.2 9 30.2 10.2 0 8.2-10 8.2-30.2h8.2v23zM190.6 56h-7.9v-4.4C180 54.9 176.2 57 171 57c-10.3 0-18.2-8.2-18.2-19.3 0-11.2 7.9-19.3 18.2-19.3 5.2 0 9 1.9 11.7 5.4v-4.6h7.9zm40.5-25.6c0 15-22.9 8.2-22.9 15.2 0 5.7 11.9 4.8 18.5 1.1l3.3 6.5c-9.4 6.1-30.2 6-30.2-8.2 0-14.3 22.9-8.3 22.9-15 0-6.3-13.5-5.8-20.7-.8l-3.5-6.3c11.2-7.6 32.6-6 32.6 7.5m35.4-9.3-2.2 6.8c-3.8-2.1-12.2-4.4-12.2 4.1v16.6h13.1V56h-13.1v11.2h-8.2V56h-7.6v-7.3h7.6V32c0-17.6 17.3-14.4 22.6-10.9m13.3 13.4h27.5c0 16.2-7.4 22.6-17.4 22.6-10.6 0-18.2-7.9-18.2-19.3 0-20.5 22.6-23.9 33.8-14.2l-3.8 6c-7.8-6.4-19.6-5.8-21.9 4.9M338.9 56c-4.6 2-11.6 1.8-15.2-4.4V56h-8.2V19.3h8.2V40c0 11.6 9.5 10.1 12.8 8.4zm10.6-18.3c0 11.4 11.6 15.1 20.7 8.4l3.8 6.5c-11.6 9.1-32.7 4.1-32.7-15 0-19.8 22.4-23.8 32.7-15l-3.8 6.5c-9.2-6.5-20.7-2.6-20.7 8.6M416.2 56H408v-4.4c-8.3 11-29.9 4.8-29.9-13.9 0-19.2 22.4-24.7 29.9-13.9v-4.6h8.2zm33.7 0c-2.4 1.2-11 2.9-15.2-4.4V56h-7.9V19.3h7.9V40c0 11 9 10.3 12.8 8.4zm40.3 14.9h-7.9V51.6c-8.2 10.9-29.9 5.1-29.9-13.9 0-19.4 22.5-24.6 29.9-13.9v-4.6h7.9zm7.6 75.1v-4.6h.8v4.6h1.9v.8h-4.6v-.8zm6.6-123.8c0 .5 0 1.1-.3 1.6-.3.3-.5.8-.8 1.1s-.8.5-1.1.8c-.5 0-1.1.3-1.6.3-.3 0-.8-.3-1.4-.3-.5-.3-.8-.5-1.1-.8-.5-.3-.8-.8-.8-1.1-.3-.5-.3-1.1-.3-1.6 0-.3 0-.8.3-1.4 0-.3.3-.8.8-1.1.3-.3.5-.5 1.1-.8.5-.3 1.1-.3 1.4-.3.5 0 1.1 0 1.6.3.3.3.8.5 1.1.8s.5.8.8 1.1c.3.6.3 1.1.3 1.4m3.2 124.7h-1.4l-1.6-3.5-1.6 3.5h-1.4v-5.4h.8v4.1l1.6-3.5h1.1l1.4 3.5v-4.1h1.1zm4.4 80.5c0 76.2-62.1 138.3-138.5 138.3-27.2 0-53.9-8.2-76.5-23.1 72.1-59.3 73.2-171.5 0-230.5 22.6-15 49.5-23.1 76.5-23.1 76.4-.1 138.5 61.9 138.5 138.4"/><glyph glyph-name="cc-discover" unicode="" horiz-adv-x="576" d="M520.4 251.9c0-8.4-5.5-12.8-15.8-12.8h-4.7V264h4.9c10.1 0 15.6-4.2 15.6-12.1M528 416c26.5 0 48-21.5 48-48V16c0-26.5-21.5-48-48-48H48C21.5-32 0-10.5 0 16v352c0 26.5 21.5 48 48 48zm-44.1-138.9v-82h16v32.8h2.2l22.2-32.8h19.6l-25.8 34.4c12.1 2.5 18.7 10.6 18.7 23.2 0 28.5-30.3 24.4-52.9 24.4M428 277v-82h45.3v13.8H444V231h28.3v13.8H444V263h29.3v14zm-68.7 0h-17.5l35-84.2h8.6l35.5 84.2h-17.5l-22.2-55.2zm-55.9 3c-24.6 0-44.6-19.9-44.6-44.6 0-24.6 19.9-44.6 44.6-44.6 24.6 0 44.6 19.9 44.6 44.6 0 24.6-19.9 44.6-44.6 44.6m-49.3-6.1c-30.2 15-63.3-6.8-63.3-38 0-32.5 33.6-52.5 63.3-38.2v19c-19.3-19.3-46.8-5.8-46.8 19.2 0 23.7 26.7 39.1 46.8 19zm-97.2-66.3c-7.6 0-13.8 3.7-17.5 10.8l-10.3-9.9c17.8-26.1 56.6-18.2 56.6 11.3 0 13.1-5.4 19-23.6 25.6-9.6 3.4-12.3 5.9-12.3 10.3 0 8.7 14.5 14.1 24.9 2.5l8.4 10.8c-19.1 17.1-49.7 8.9-49.7-14.3 0-11.3 5.2-17.2 20.2-22.7 25.7-9.1 14.7-24.4 3.3-24.4M55.4 195c30.9 0 44.1 22.4 44.1 40.9 0 24.1-18 41.1-44.1 41.1H32v-82zm67.5 0v82h-16v-82zM544 15v145C510.7 139.2 317.6 35.6 128 0h401c8.2 0 15 6.8 15 15M74.1 256.4c5.7-5 8.9-12.6 8.9-20.5s-3.2-15.5-8.9-20.7c-4.9-4.4-11.6-6.4-21.9-6.4H48V263h4.2c10.3 0 16.7-1.7 21.9-6.6"/><glyph glyph-name="cc-amex" unicode="" horiz-adv-x="576" d="M325.1 280.2c.1-8-4.3-15.7-11.7-18.7 9.5-3.3 11-9.2 11-18.4v-13.5h-16.6c-.3 14.8 3.6 25.1-14.8 25.1h-18v-25.1h-16.4v69.3l39.1-.3c13.3 0 27.4-2 27.4-18.4m-29.4-11.3c5.7 0 11 1.3 11 7.9 0 6.4-5.6 7.4-10.7 7.4h-21v-15.3zM279 179.4c15.6 0 27.9-5.4 27.9-22.7 0-27.9-30.4-23.3-49.3-23.3l-.1-23.3h-32.2l-20.4 23-21.3-23h-65.4l.1 69.3h66.5l20.5-22.8 21 22.8zm-103.8-54.7 19 20.2-17.9 20.2h-41.7v-12.5h36.3v-14.1h-36.3v-13.8zm65.8-8.2V172l-25.3-27.4zm37.8 31c5.9 0 10.5 2.8 10.5 9.2 0 6.1-4.6 8.4-10.2 8.4h-21.5v-17.6zm-31.6 136.7h-38.9v-12.5h37.8v-14.1h-37.8v-13.8h38.9v-14.3h-55.5v69.3h55.5zM576 192.6h-.2zm-194.6-31.9c-.1-7.6-4.2-15.3-11.9-18.4 9.2-3.3 11-9.5 11-18.4l-.1-13.8h-16.6l.1 11.5c0 11.8-3.8 13.8-14.8 13.8h-17.6l-.1-25.3h-16.6l.1 69.3h39.4c13 0 27.1-2.3 27.1-18.7m-29.2-11.2c5.6 0 11 1.3 11 8.2 0 6.4-5.6 7.4-10.7 7.4h-21v-15.6zm-172.8 80h-16.8v54.2l-24-54.2H124l-24 54.2v-54.2H66.2l-6.4 15.3H25.3l-6.4-15.3H1l29.7 69.3h24.5l28.1-65.7v65.7h27.1l21.7-47 19.7 47h27.6zM31.2 259.2h22.7l-11.5 27.6zm477.4-158.9c34.8 0 54.8-2.2 67.5 6.1V16c0-26.5-21.5-48-48-48H48C21.5-32 0-10.5 0 16v203.7h26.6c4.2 10.1 2.2 5.3 6.4 15.3h19.2c4.2-10 2.2-5.2 6.4-15.3h52.9v11.4c2.2-5 1.1-2.5 5.1-11.4h29.5c2.4 5.5 2.6 5.8 5.1 11.4v-11.4h135.5v25.1c6.4 0 8 .1 9.8-.2 0 0-.2-10.9.1-24.8h66.5v8.9c7.4-5.9 17.4-8.9 29.7-8.9h26.8c4.2 10.1 2.2 5.3 6.4 15.3h19c6.5-15 .2-.5 6.6-15.3h52.8v21.9c11.8-19.7 7.8-12.9 13.2-21.9h41.6v92h-39.9v-18.4c-12.2 20.2-6.3 10.4-11.2 18.4h-43.3v-20.6c-6.2 14.6-4.6 10.8-8.8 20.6h-32.4c-.4 0-2.3-.2-2.3.3h-27.6c-12.8 0-23.1-3.2-30.7-9.3v9.3h-39.9v-5.3c-10.8 6.1-20.7 5.1-64.4 5.3-.1 0-11.6.1-11.6 0h-103c-2.5-6.1-6.8-16.4-12.6-30-2.8 6-11 23.8-13.9 30h-46V291c-7.4 17.4-4.7 11-9 21.1H22.9c-3.4-7.9-13.7-32-23.1-53.9V368c0 26.5 21.5 48 48 48h480c26.5 0 48-21.5 48-48V192.6c-37.7.2-44 .9-54.3-5v5c-45.3 0-53.5 1.7-64.9-5.199v5.2h-78.2v-5.1c-11.4 6.5-21.4 5.1-75.7 5.1V187c-6.3 3.7-14.5 5.6-24.3 5.6h-58c-3.5-3.8-12.5-13.7-15.7-17.2-12.7 14.1-10.5 11.6-15.5 17.2h-83.1v-92.3h82c3.3 3.5 12.9 13.9 16.1 17.4 12.7-14.3 10.3-11.7 15.4-17.4h48.9c0 14.7.1 8.3.1 23 11.5-.2 24.3.2 34.3 6.2 0-13.9-.1-17.1-.1-29.2h39.6c0 18.5.1 7.4.1 25.3 6.2 0 7.7 0 9.4-.1.1-1.3 0 0 0-25.2 152.8 0 145.9-1.1 156.7 4.5zm36.3 64.5c-4.6 0-9.2-.7-9.2-6.5 0-12.2 28.8.3 39.3-13.5V119c-4.9-7.1-14.1-8.9-22.5-8.9h-32l.1 14.8h32c4.1 0 8.4 1.3 8.4 6.4 0 14.6-42.7-5.6-42.7 27.4 0 14.1 11 20.7 23.8 20.7H575v-14.6zm-57-39.8c4.1 0 8.7 1 8.8 6.4 0 14.9-42.7-5.6-42.7 27.4 0 14.1 10.7 20.7 23.5 20.7h33.2v-14.6h-30.4c-4.3 0-9.2-.8-9.2-6.4 0-15.1 42.9 6.9 42.9-26.3 0-16.4-11.4-22-26.2-22h-32.2l.1 14.8zm-42.2 40.1h-38.5v-12.5H445v-14.1h-37.9v-13.8l38.6-.3-.1-14.3h-55.2l.1 69.3h55.2zm-56.3 108.1c.3.3 1.7 1 7.3 1 1 0 2-.1 3.1-.1l-7.3-16.9c-2.3 0-3.2.4-3.4.5-.2.2-1.1 1.9-1.1 7.9 0 5.4 1.1 7.4 1.4 7.6m20.4 10.5h-.1zm-16.2 15.2h16.1v-15.2c-17.4.3-33.1 4.1-33.1-19.7 0-11.8 2.8-19.9 16.1-19.9h7.4l23.5 54.5h24.8l27.9-65.4v65.4h25.3l29.1-48.1v48.1h16.9v-69H524l-31.2 51.9v-51.9h-33.7l-6.6 15.3h-34.3l-6.4-15.3h-19.2c-22.8 0-33 11.8-33 34 0 23.3 10.5 35.3 34 35.3m42.1-12.1-11.6-27.6h22.8zm-101.1 12h16.9v-69.3h-16.9z"/><glyph glyph-name="cc-paypal" unicode="" horiz-adv-x="576" d="M186.3 189.8c0-12.2-9.7-21.5-22-21.5-9.2 0-16 5.2-16 15 0 12.2 9.5 22 21.7 22 9.3 0 16.3-5.7 16.3-15.5M80.5 238.3c11.3 0 19.8-1.5 17.5-14.9-2-12.7-10.5-14.2-21.5-14.2l-8.2-.3 4.3 26.7c.2 1.7 1.7 2.7 3.2 2.7zm284 0c8.5 0 18-.5 18.1-11.1 0-15-9-18-22-18l-8-.3 4.2 26.7c.2 1.7 1.4 2.7 3.2 2.7zM576 368V16c0-26.5-21.5-48-48-48H48C21.5-32 0-10.5 0 16v352c0 26.5 21.5 48 48 48h480c26.5 0 48-21.5 48-48M128.3 232.6c0 21-16.2 28-34.7 28h-40c-2.5 0-5-2-5.2-4.7L32 153.8c-.3-2 1.2-4 3.2-4h19c2.7 0 5.2 2.9 5.5 5.7l4.5 26.6c1 7.2 13.2 4.7 18 4.7 28.6 0 46.1 17 46.1 45.8m84.2-8.8h-19c-3.8 0-4-5.5-4.2-8.2-5.8 8.5-14.2 10-23.7 10-24.5 0-43.2-21.5-43.2-45.2 0-19.5 12.2-32.2 31.7-32.2 9 0 20.2 4.9 26.5 11.9-.5-1.5-1-4.7-1-6.2 0-2.3 1-4 3.2-4H200c2.7 0 5 2.9 5.5 5.7l10.2 64.3c.3 1.9-1.2 3.9-3.2 3.9m40.5-97.9 63.7 92.6c.5.5.5 1 .5 1.7 0 1.7-1.5 3.5-3.2 3.5h-19.2c-1.7 0-3.5-1-4.5-2.5l-26.5-39-11 37.5c-.8 2.2-3 4-5.5 4h-18.7c-1.7 0-3.2-1.8-3.2-3.5 0-1.2 19.5-56.8 21.2-62.1-2.7-3.8-20.5-28.6-20.5-31.6 0-1.8 1.5-3.2 3.2-3.2h19.2c1.8.1 3.5 1.1 4.5 2.6m159.3 106.7c0 21-16.2 28-34.7 28h-39.7c-2.7 0-5.2-2-5.5-4.7l-16.2-102c-.2-2 1.3-4 3.2-4h20.5c2 0 3.5 1.5 4 3.2l4.5 29c1 7.2 13.2 4.7 18 4.7 28.4 0 45.9 17 45.9 45.8m84.2-8.8h-19c-3.8 0-4-5.5-4.3-8.2-5.5 8.5-14 10-23.7 10-24.5 0-43.2-21.5-43.2-45.2 0-19.5 12.2-32.2 31.7-32.2 9.3 0 20.5 4.9 26.5 11.9-.3-1.5-1-4.7-1-6.2 0-2.3 1-4 3.2-4H484c2.7 0 5 2.9 5.5 5.7l10.2 64.3c.3 1.9-1.2 3.9-3.2 3.9m47.5 33.3c0 2-1.5 3.5-3.2 3.5h-18.5c-1.5 0-3-1.2-3.2-2.7l-16.2-104-.3-.5c0-1.8 1.5-3.5 3.5-3.5h16.5c2.5 0 5 2.9 5.2 5.7L544 256.8zm-90-51.8c9.3 0 16.3-5.7 16.2-15.5 0-12.3-9.7-21.5-21.7-21.5-9.2 0-16.2 5.3-16.2 15 0 12.3 9.5 22 21.7 22"/><glyph glyph-name="cc-stripe" unicode="" horiz-adv-x="576" d="M492.4 227.2c8.7 0 18-6.7 18-22.7h-36.7c0 16 9.8 22.7 18.7 22.7M375 224.6c12.9.1 21.9-14.5 21.9-33.1 0-19.1-8.8-33.4-21.9-33.4-8.3 0-13.3 3-16.8 6.7l-.2 52.8c3.7 4.1 8.8 7 17 7M528 416c26.5 0 48-21.5 48-48V16c0-26.5-21.5-48-48-48H48C21.5-32 0-10.5 0 16v352c0 26.5 21.5 48 48 48zM122.2 166.9c0 42.3-54.3 34.7-54.3 50.7 0 5.5 4.6 7.7 12.1 7.7 10.8 0 24.5-3.3 35.3-9.1v33.4c-11.8 4.7-23.5 6.5-35.3 6.5-28.8 0-48-15-48-40.2 0-39.3 54-32.9 54-49.9 0-6.6-5.7-8.7-13.6-8.7-11.8 0-26.9 4.9-38.9 11.3v-33.9c13.2-5.7 26.6-8.1 38.8-8.1 29.6.2 49.9 14.7 49.9 40.3m68.8 56.6v30.3h-26.9v30.8l-34.7-7.4-.2-113.9c0-21 15.8-36.5 36.9-36.5 11.6 0 20.2 2.1 24.9 4.7v28.9c-4.5-1.8-27-8.3-27 12.6v50.5zm74-2.4v32.7h-.1c-4.7 1.7-21.3 4.8-29.6-10.5l-2.2 10.5h-30.7V129.3h35.5v84.4c8.4 11 22.6 8.9 27.1 7.4m44.1-91.8v124.5h-35.7V129.3zm0 142.9v28.9l-35.7-7.6v-28.9zm74.1-145.5c25.4.1 48.6 20.5 48.6 65.6 0 41.3-23.5 63.8-48.4 63.8-13.9 0-22.9-6.6-27.8-11.1l-1.8 8.8h-31.3V88l35.5 7.5.1 40.2c5.1-3.7 12.7-9 25.1-9m160.4 51.5c.1 2 .4 9.4.4 12.9 0 36.4-17.6 65.1-51.3 65.1-33.8 0-54.3-28.7-54.3-64.9 0-42.8 24.2-64.5 58.8-64.5 17 0 29.7 3.9 39.4 9.2v28.6c-9.7-4.9-20.8-7.9-34.9-7.9-13.8 0-26 4.9-27.6 21.5z"/><glyph glyph-name="lastfm" unicode="" horiz-adv-x="512" d="M225.8 80.9s-31.7-31.1-97.9-31.1C45.7 49.8 0 97.9 0 187c0 92.7 45.7 147.2 131.8 147.2 117.7 0 129.3-66.2 161.3-163 14-42.8 38.7-73.9 97.901-73.9 39.9 0 61 8.8 61 30.5 0 31.9-34.9 35.1-79.8 45.7-48.6 11.7-68 36.9-68 76.8 0 64 51.6 83.9 104.4 83.9 59.8 0 96.2-21.7 100.9-74.5l-58.6-7c-2.301 25.2-17.5 35.8-45.7 35.8-25.8 0-41.601-11.8-41.601-31.7 0-17.6 7.6-28.1 33.4-34 52.3-11.5 115-19.2 115-92.1 0-58.6-49.3-80.9-122-80.9-101.4 0-136.6 45.7-155.4 102.6-26.1 81.6-34.4 134.9-100.899 134.9-35.7 0-72.1-25.8-72.1-97.9 0-56.3 28.7-91.5 69.2-91.5 45.7 0 76.2 34 76.2 34z"/><glyph glyph-name="lastfm-square" unicode="" d="M400 416c26.5 0 48-21.5 48-48V16c0-26.5-21.5-48-48-48H48C21.5-32 0-10.5 0 16v352c0 26.5 21.5 48 48 48zm-92.2-312.9c45.4 0 76.2 13.9 76.1 50.6 0 45.5-39.1 50.4-71.8 57.5-16.1 3.7-20.9 10.3-20.9 21.3 0 12.5 9.9 19.8 26 19.8 17.6 0 27.1-6.6 28.6-22.4l36.7 4.4c-2.9 33-25.6 46.6-63 46.6-32.9 0-65.2-12.4-65.2-52.4 0-24.9 12.1-40.7 42.5-48 28.1-6.6 49.9-8.7 49.9-28.6 0-13.6-13.2-19.1-38.1-19.1-37 0-52.4 19.4-61.2 46.2-20 60.5-27.3 101.9-100.8 101.9-53.9 0-82.5-34.1-82.5-92 0-55.7 28.6-85.8 79.9-85.8 41.4 0 61.2 19.4 61.2 19.4l-11.7 31.9s-19-21.3-47.6-21.3c-25.3 0-43.3 22-43.3 57.2 0 45.1 22.7 61.2 45.1 61.2 41.5 0 46.7-33.3 63-84.3 11.7-35.5 33.7-64.1 97.1-64.1"/><glyph glyph-name="ioxhost" unicode="" horiz-adv-x="640" d="M616 288c13.3 0 24-10.7 24-24 0-13.2-10.7-24-24-24h-52.7c3.1-15.5 4.7-31.6 4.7-48C568 55 457-56 320-56 217.1-56 128.8 6.7 91.3 96H24c-13.3 0-24 10.7-24 24 0 13.2 10.7 24 24 24h52.7c-3.1 15.5-4.7 31.6-4.7 48 0 137 111 248 248 248 102.9 0 191.2-62.7 228.7-152zm-96-96c0 16.6-2 32.6-5.8 48H216c-13.3 0-24 10.7-24 24 0 13.2 10.7 24 24 24h279.5c-33.9 62-99.8 104-175.5 104-110.5 0-200-89.5-200-200 0-16.6 2-32.6 5.8-48H424c13.3 0 24-10.7 24-24 0-13.2-10.7-24-24-24H144.5C178.4 34 244.3-8 320-8c110.5 0 200 89.5 200 200m-304 24h208c13.3 0 24-10.7 24-24 0-13.2-10.7-24-24-24H216c-13.3 0-24 10.7-24 24 0 13.2 10.7 24 24 24"/><glyph glyph-name="angellist" unicode="" d="M347.1 232.6c48-11.7 54.9-50.6 54.9-93.7C402 24.6 328.6-64 210.6-64 114.401-64 46 12.402 46.1 84.6c0 37.101 14.2 61.701 51.101 71.701-3.1 8.3-8 20.8-8 29.7 0 23.5 24.9 52.6 48.3 52.6 6.9 0 13.7-2 20-4.3-12.4 35.2-46.6 126.7-46.6 162 0 28.8 14.6 51.7 45.7 51.7 40 0 85.4-144 95.1-172.5 12.5 31.4 52.5 163.1 97.1 163.1 28 0 43.7-22.3 43.7-48.9 0-30.2-33.7-124.5-45.4-157.1zM311.7 340l-33.1-93.7 34-6c8.5 23.4 47.1 128.9 47.1 148 0 7.1-2.3 16-10.9 16-16 0-33.1-52-37.1-64.3m-169.4 59.7c0-29.1 34.6-120 45.5-148.8 7.7 4.4 19.8 2.7 35.4 1.4l-34.6 100.3c-31.8 92.8-46.3 59-46.3 47.1M140 204c-7.7 0-20.3-13.4-20.4-21.1 0-20.8 56-97.7 76.9-97.7 5.7 0 10.6 6.3 10.6 11.4 0 12.8-37.8 107.4-67.1 107.4M324.3 17.7c55.3 61.5 49.1 158.6 31 174.7-24 21.1-106 29.1-138.3 29.1-17.3 0-17.4-6.4-17.4-13.1 0-43.7 92.9-39.7 120.6-39.7 11.2 0 15.8-9.9 16.9-21.1-7.4-7.4-17.7-11.7-27.4-15.4-9.4-3.4-19.1-7.1-27.1-13.1-22-16-43.7-43.4-43.7-71.7 0-17.7 10.6-32.9 10.6-50.3 0-.3-2-6.5-2-7.4-32.6 2.3-40.6 34.6-41.7 61.7-3.4-.9-8-.6-11.7-.6 5.1-17.8-11.9-42-38-42-37.8 0-88 57.2-58.3 86.9 28.7-35.9 35-51.4 51.1-51.4 4 0 11.7 3.4 11.7 8.3 0 12.8-42.9 73.1-54.3 73.1-16.8 0-37.7-24.9-20.6-68.3 22.6-55.7 69.5-88.3 128.9-88.3 43.4 0 80.6 16.6 109.7 48.6m-98.6 126c3.2-8.3 6.6-16.6 9.4-25.1 6.3 7.1 12.9 13.7 20.3 19.1-10 2-20 2.9-29.7 6"/><glyph glyph-name="buysellads" unicode="" d="m224 297.3 42.9-160.7h-85.8zM448 368V16c0-26.5-21.5-48-48-48H48C21.5-32 0-10.5 0 16v352c0 26.5 21.5 48 48 48h352c26.5 0 48-21.5 48-48M382.7 42.7l-94.5 298.7H159.8L65.3 42.7H156l111.7 91.6 24.2-91.6z"/></font>
</defs>
</svg>
