<svg xmlns="http://www.w3.org/2000/svg"><defs><font id="eicons" horiz-adv-x="1000"><font-face font-family="eicons" font-weight="400" ascent="850" descent="-150"/><glyph glyph-name="editor-link" unicode="" d="M691 233c0 8-3 15-8 20l-64 64q-9 9-21 9c-9 0-16-3-22-10q0-1.5 6-6c3-3 5-5 6-7 2-1 3-3 5-5 2-3 3-6 4-8s1-6 1-9c0-8-3-15-8-21-6-5-13-8-21-8-3 0-6 0-9 1s-5 2-7 4c-3 2-5 3-6 5-2 1-4 3-7 6-3 4-5 5-6 6-6-6-10-14-10-22 0-9 3-15 9-21l63-63q7.5-9 21-9c8 0 15 3 21 8l45 45c5 6 8 13 8 21M476 448c0 9-3 15-9 21l-63 64c-6 5-12 8-21 8-8 0-15-3-20-8l-45-45c-6-5-9-12-9-20q0-12 9-21l63-64c6-5 13-8 21-8 9 0 16 3 22 10 0 0-2 2-6 5-3 4-5 6-6 7-2 1-3 3-5 6-2 2-3 5-4 8-1 2-1 5-1 8 0 9 3 15 8 21s13 9 21 9c3 0 6-1 9-1 2-1 5-3 8-5 2-2 4-3 5-4 2-1 4-4 7-7l6-6c7 7 10 14 10 22m274-215c0-25-9-46-26-63l-45-44c-17-17-37-26-62-26-24 0-45 9-62 26l-63 64c-17 17-26 37-26 62s9 46 27 64l-27 27q-25.5-27-63-27c-25 0-46 9-63 26l-64 63c-17 18-26 38-26 63s9 45 26 62l45 45c17 17 38 25 62 25 25 0 46-9 63-26l63-63c17-17 25-38 25-62 0-25-9-47-27-64l27-27c18 17 39 27 64 27s45-9 62-26l64-64c17-17 26-38 26-62" horiz-adv-x="1000"/><glyph glyph-name="editor-unlink" unicode="" d="m383 222-78-78c-2-1-4-3-7-3s-5 1-7 3-3 4-3 7 1 5 3 7l77 78c2 2 5 3 7 3s5-1 8-3c1-2 2-4 2-7s0-5-2-7m51-12v-97c0-3-1-5-3-8-2-1-4-2-7-2s-5 0-7 2-3 5-3 8v96c0 3 1 5 3 7 1 2 4 3 7 3s5-1 7-3c2-1 3-4 3-6m-68 67c0-3-1-5-3-7-1-2-4-3-7-3h-96c-3 0-5 1-7 3s-3 4-3 7 0 5 3 7c1 2 4 3 7 3h96c3 0 5-1 7-3s3-4 3-7m382-39c0-24-8-44-25-61l-45-44c-17-17-37-25-61-25-25 0-45 9-62 26L454 235c-4 4-8 10-12 17l72 5 82-83c6-5 13-8 21-8s15 2 20 8l45 44c6 6 8 12 8 20s-3 15-8 21l-83 83 5 72c7-4 13-9 17-13l102-101c17-17 25-38 25-62M562 457l-72-5-83 83c-6 5-12 8-20 8s-15-3-21-8l-45-44c-6-6-8-13-8-21 0-7 3-15 8-20l83-83-5-72c-7 4-13 8-17 12L280 409c-17 17-25 38-25 61 0 25 8 45 25 62l45 44c17 17 37 25 61 25 25 0 45-9 62-26l101-101c4-4 9-10 13-17m191-25c0-3-1-5-3-7s-4-3-7-3h-97c-3 0-5 1-7 3-1 1-3 4-3 7s1 5 3 7c2 1 4 3 7 3h97c3 0 5-1 7-3s3-4 3-7M588 596v-96c0-3 0-5-3-7-1-2-4-3-7-3s-5 0-7 3c-1 1-3 4-3 7v96c0 3 1 5 3 7s4 3 7 3 5-1 7-3c3-2 3-4 3-7m124-45-78-78c-2-1-4-3-7-3-2 0-4 1-7 3-2 2-3 5-3 7s1 5 3 8l78 77c2 2 4 3 7 3s5-1 7-3c1-2 3-4 3-7s-2-5-3-7" horiz-adv-x="1000"/><glyph glyph-name="editor-external-link" unicode="" d="m742 481 61-61c3-3 8-5 13-5s10 2 13 5c4 4 6 9 6 14v189c0 5-2 10-6 13-4 4-8 6-13 6H627c-5 0-10-2-13-6s-6-8-6-13 2-10 6-13l65-65-225-225c-17-18-17-46 0-63s46-18 63 0zm8-189V169c0-30-11-56-32-78-22-22-48-33-79-33H319q-45 0-78 33t-33 78v320c0 31 11 57 33 79s48 32 78 32h226q6 0 9-3 3-4.5 3-9v-25c0-3-1-6-3-8-3-3-6-4-9-4H319c-17 0-31-6-43-18s-18-26-18-43V170c0-17 6-31 18-43s27-18 43-18h320c17 0 31 6 44 18s17 26 17 43v123c0 4 2 7 4 9q3 3 9 3h24q6 0 9-3c3-3 4-6 4-10" horiz-adv-x="1000"/><glyph glyph-name="editor-close" unicode="" d="m580 329 158 158c16 16 16 43 0 59-17 16-43 16-59 0L521 388 363 546c-16 17-43 17-59 0-8-8-12-18-12-29s4-22 12-30l158-158-158-158c-16-16-16-42 0-58 9-9 19-13 30-13s21 5 29 13l158 157 158-157c9-9 19-13 30-13s21 5 29 13c9 8 12 18 12 29s-4 21-12 30z" horiz-adv-x="1000"/><glyph glyph-name="editor-list-ol" unicode="" d="m182 576 26-3v-15h-83v15l27 3v84h-27v15l57 8zm7-249h-31v1l22 23c9 10 15 19 19 25q6 9 6 21c0 11-3 20-10 26s-17 10-30 10c-12 0-22-4-29-12-8-7-11-17-11-28h24c0 6 1 11 4 15q4.5 6 12 6c5 0 9-2 12-5 3-4 4-8 4-13 0-4-1-8-3-13-3-4-6-10-12-16l-39-43v-16h81v31h-18zm-1-225c6 4 10 8 14 15s5 13 5 20c0 15-4 26-12 34q-10.5 12-30 12c-11 0-20-4-28-12s-11-19-11-31v-1h24c0 6 2 10 5 14s7 5 11 5c5 0 9-2 12-5s4-10 4-16c0-7-1-13-4-17s-7-6-13-6h-14V90h14c6 0 11-2 14-6 4-4 5-11 5-19 0-7-2-13-5-17-4-4-8-6-14-6q-7.5 0-12 6c-3 4-5 9-5 15h-23c0-15 4-26 12-34s17-12 28-12c13 0 23 4 31 13s12 20 12 35c0 8-1 16-5 23-3 6-8 11-15 14m620 290H333c-23 0-41-19-41-42s18-42 41-42h475c23 0 42 19 42 42s-19 42-42 42m0-250H333c-23 0-41-19-41-42s18-42 41-42h475c23 0 42 19 42 42s-19 42-42 42M333 558h475c23 0 42 19 42 42s-19 42-42 42H333c-23 0-41-19-41-42s18-42 41-42" horiz-adv-x="1000"/><glyph glyph-name="editor-list-ul" unicode="" d="M892 350c0-23-19-42-42-42H375c-23 0-42 19-42 42s19 42 42 42h475c23 0 42-19 42-42m-42-208H375c-23 0-42-19-42-42s19-42 42-42h475c23 0 42 19 42 42s-19 42-42 42M375 558h475c23 0 42 19 42 42s-19 42-42 42H375c-23 0-42-19-42-42s19-42 42-42M188 663c-35 0-63-28-63-63s28-62 63-62c34 0 62 27 62 62s-28 63-62 63m0-500c-35 0-63-28-63-63s28-62 63-62c34 0 62 27 62 62s-28 63-62 63m0 252c-35 0-63-28-63-62 0-35 28-63 63-63 34 0 62 28 62 63 0 34-28 62-62 62" horiz-adv-x="1000"/><glyph glyph-name="editor-bold" unicode="" d="M469 140c16-7 31-11 45-11 81 0 121 39 121 117 0 27-5 48-13 63-6 11-13 19-20 26s-15 13-22 16c-7 4-16 7-26 9s-19 3-27 4c-8 0-18 1-30 1-16 0-27-2-33-4V227c0-14-1-25 0-34 0-9 0-18 1-29s2-19 4-24m-2 256c10-1 23-2 40-2 20 0 37 1 52 4s29 8 41 15c12 6 20 16 27 28 6 13 9 28 9 46 0 15-3 28-11 39-7 11-16 20-28 26s-26 11-40 14-29 4-45 4c-12 0-28-1-48-4 0-11 1-26 2-48s2-38 2-49v-51c-2-9-2-17-1-22M292 100l1 30c3 1 12 3 27 5s27 6 35 9c1 3 3 6 4 9s2 7 3 11 1 7 1 10 1 7 1 12v33c0 213-2 324-7 334-1 1-3 3-7 4s-9 3-15 4-11 2-16 2-10 1-16 2-8 0-10 0l-1 28q31.5 0 111 3c79.5 3 93 4 122 4h44c15 0 30-1 45-4s28-8 41-14c14-6 25-14 35-23s18-20 25-34 9-28 9-45c0-11-2-21-6-31s-8-17-12-23-12-13-21-19-17-11-24-14-16-8-27-13c33-8 61-22 83-44s33-48 33-81c0-22-3-41-11-58s-18-32-30-43-28-20-45-28-35-13-54-16-37-4-57-4c-10 0-24 0-43 1s-33 1-43 1c-23 0-56-2-100-4s-69-4-75-4" horiz-adv-x="1000"/><glyph glyph-name="editor-italic" unicode="" d="m333 101 6 27c1 1 10 3 26 7s29 9 37 13c6 7 10 18 13 32 0 2 7 33 20 95s25 120 37 177 17 88 17 96v9q-7.5 4.5-18 6c-10.5 1.5-14 2-22 2s-15 1-19 2l6 33c7 0 20-1 39-2s35-2 49-2c14-1 27-1 39-1 11 0 22 0 32 1s25 1 40 2 26 2 32 2c-1-8-3-18-6-29-7-2-18-6-33-9s-27-8-35-11c-2-4-4-9-5-14s-2-9-3-13-2-8-2-15-2-11-3-14c-5-32-15-77-28-136s-22-98-25-116c-1-2-2-8-4-19s-5-20-7-29-4-18-5-27-2-15-2-19v-6c4 0 24-4 61-10-1-9-3-20-5-32h-11c-5 0-8-1-10-1-6 0-16 2-29 4s-22 3-27 3c-30 1-53 1-68 1-11 0-26-1-46-3s-34-4-41-4" horiz-adv-x="1000"/><glyph glyph-name="editor-underline" unicode="" d="M266 570c-8 0-13 0-15 1l-1 28c3 1 7 1 13 1 13 0 25-1 37-2 28-1 46-2 54-2 19 0 37 1 54 1 25 1 41 1 48 2 12 0 22 0 28 1l-1-5 1-20v-3c-13-2-26-3-40-3-13 0-22-3-26-8-3-3-4-17-4-43v-92l5-90c1-27 6-48 16-65 8-13 18-23 32-30q28.5-15 57-15c23 0 44 3 62 9 12 4 23 10 32 17 11 8 18 14 22 20 8 12 13 24 17 37 4 16 6 40 6 74 0 17 0 30-1 41s-2 24-4 39c-1 16-3 33-4 52l-1 19c-2 14-4 24-8 28-8 8-16 11-25 11l-33-1-4 1v27h28l67-3c16-1 37 1 63 3h6c1-9 2-14 2-17 0-1 0-5-1-10-10-2-19-4-28-4-15-2-24-4-25-5-4-4-5-8-5-14v-18c2-4 5-47 8-128 1-41-1-74-5-98-4-16-8-29-14-39q-12-21-36-39c-17-13-36-22-60-29-23-7-51-11-83-11-36 0-67 5-92 15-26 10-45 24-58 40-14 16-22 37-27 62-4 18-5 43-5 77v106q0 61.5-6 69c-4 8-20 12-46 13m484-462c0-3-1-4-3-6s-4-2-7-2H260c-2 0-5 1-7 2s-3 3-3 6v14q0 3 3 6c3 3 5 2 7 2h480c3 0 5-1 7-2s3-4 3-6z" horiz-adv-x="1000"/><glyph glyph-name="editor-paragraph" unicode="" d="M437 328c-92 0-165 53-165 145s73 147 165 147h250c23 0 41-19 41-42s-18-41-41-41h-42V122c0-23-19-42-42-42s-41 19-41 42v415h-42V122c0-23-19-42-42-42s-41 19-41 42z" horiz-adv-x="1000"/><glyph glyph-name="editor-h1" unicode="" d="M673 142c-10 0-24 0-44 1s-34 1-43 1c-10 0-24 0-43-1s-33-1-43-1q-7.5 0-12 6c-4.5 6-4 10-4 15 0 7 1 12 5 15s8 5 13 6 10 1 16 2 12 3 15 5c7 4 11 19 11 45l-1 127v10c-3 1-8 2-16 2H308c-9 0-14-1-17-2-1-2-1-5-1-10V243q0-46.5 12-54c3-2 9-4 16-4s13-1 19-1 10-2 14-5 7-8 7-15c0-6-1-11-4-16s-7-6-12-6c-10 0-26 0-46 1s-35 1-45 1c-9 0-23 0-41-1s-32-1-42-1c-5 0-8 2-11 6s-4 10-4 15c0 7 1 11 5 15s7 5 11 5 10 2 16 3 10 3 13 5c7 5 11 20 11 47v303c0 3-1 7-1 12s0 10-1 14-1 8-2 12-2 8-4 11-3 4-5 5c-3 3-8 4-14 4s-12 1-17 1-10 2-14 5-6 8-6 14 2 11 4 16 7 7 12 7c10 0 25 0 45-1s35-1 45-1c9 0 23 0 41 1s32 1 41 1c6 0 10-3 12-7s5-10 5-16c0-7-2-11-6-14s-8-5-12-5-10-1-17-1-10-2-14-4c-7-5-11-22-11-52V438c0-4 0-8 1-10 3-1 7-1 12-1h228c5 0 9 1 12 1 1 2 1 6 1 10v105c0 30-4 47-11 52-4 2-10 3-19 4s-16 1-22 4-8 8-8 16c0 6 1 11 4 16s7 7 12 7c10 0 24 0 43-1s33-1 43-1c9 0 23 0 42 1s32 1 42 1c5 0 10-2 12-7s4-10 4-16-2-11-6-14-8-5-12-5h-17c-6 0-11-2-14-5-8-5-12-22-12-52l1-307c0-26 4-41 11-46 3-2 8-3 15-4s13-1 18-2 9-2 13-5 6-8 6-14-1-11-4-16-7-7-12-7m40 244-18 30 114 84h31V210c0-5 0-8-1-12s0-8 0-11-1-6-1-8l37 2v-39H732v33c5 0 10 1 15 2 4 1 8 2 11 5s5 7 7 13 3 14 3 24v200z" horiz-adv-x="1000"/><glyph glyph-name="editor-h2" unicode="" d="M631 142c-10 0-24 0-43 1s-34 1-44 1c-9 0-24 0-43-1s-33-1-43-1q-7.5 0-12 6c-4.5 6-4 10-4 15q0 10.5 6 15c6 4.5 7 5 12 6s10 1 17 2 11 3 14 5c7 4 11 19 11 45v127c0 5 0 8-1 10-3 1-8 2-16 2H266c-8 0-14-1-17-2v-10l-1-120c0-31 5-49 12-54 4-2 9-4 16-4s14-1 19-1 10-2 15-5 6-8 6-15c0-6-1-11-4-16s-7-6-12-6c-10 0-25 0-45 1s-35 1-45 1-24 0-42-1-32-1-41-1q-7.5 0-12 6c-4.5 6-4 10-4 15 0 7 2 11 5 15s7 5 12 5 9 2 15 3 10 3 14 5c7 5 11 20 11 47l-1 18v297c0 5-1 10-2 14s-1 8-2 12-2 8-3 11-4 4-5 5c-4 3-9 4-15 4s-12 1-17 1-10 2-13 5-6 8-6 14 1 11 4 16 6 7 11 7c10 0 25 0 45-1s35-1 45-1c9 0 23 0 41 1s33 1 42 1c5 0 9-3 12-7s4-10 4-16c0-7-2-11-5-14s-8-5-13-5-10-1-16-1-11-2-14-4c-8-5-12-22-12-52l1-105v-10c3-1 7-1 13-1h227c6 0 10 1 13 1v10l1 105c0 30-4 47-12 52-3 2-10 3-19 4s-16 1-22 4-8 8-8 16c0 6 1 11 4 16s7 7 12 7c10 0 24 0 43-1s34-1 43-1 24 0 42 1 33 1 42 1c6 0 10-2 12-7s5-10 5-16-2-11-6-14-9-5-13-5h-17c-6 0-11-2-14-5-7-5-11-22-11-52V236c0-26 4-41 11-46 4-2 9-3 15-4s13-1 18-2 10-2 13-5 6-8 6-14-1-11-4-16-7-7-12-7m152 322q-13.5 0-24-6c-10.5-6-13-9-16-15 3-3 6-8 7-13s2-9 2-12 0-7-2-11-3-7-5-10c-3-4-7-6-11-8s-9-4-16-4c-5 0-9 2-13 4s-7 4-10 8c-3 3-5 7-7 11s-2 10-2 14c0 5 2 11 4 16s5 12 9 18 9 11 16 17c6 5 13 10 21 14s17 7 27 10 21 3 32 3c14 0 27-1 40-5s26-8 37-16 19-17 26-29 10-27 10-44c0-8-2-17-5-26s-9-20-17-31-19-24-33-38-33-30-56-48c-9-8-17-15-24-22s-12-13-16-20-8-11-11-16-4-9-4-12l98-3h3c5 0 10 1 14 2s8 2 11 5 5 6 7 10 2 9 2 16h32l-4-81H686c0 17 2 32 7 46s10 26 17 37 16 21 25 31 19 18 29 27c12 12 22 22 31 32s15 20 20 30q9 13.5 12 27c3 13.5 4 18 4 27 0 8-1 16-2 24s-4 15-8 21-8 11-14 15c-7 3-14 5-24 5" horiz-adv-x="1000"/><glyph glyph-name="editor-h3" unicode="" d="M631 142c-10 0-24 0-43 1-20 1-34 1-44 1-9 0-24 0-43-1s-33-1-43-1q-7.5 0-12 6c-3 5-4 10-4 15q0 10.5 6 15c3 4 7 5 12 6 5 0 10 1 17 2 6 1 11 3 14 5 7 4 11 19 11 45v127c0 5 0 8-1 10-3 1-8 2-16 2H266c-8 0-14-1-17-2v-10l-1-120c0-31 5-49 12-54 4-2 9-4 16-4 7-1 14-1 19-1s10-2 15-5c4-4 6-8 6-15 0-6-1-11-4-16s-7-7-12-7c-10 0-25 0-45 1s-35 1-45 1-24 0-42-1-32-1-41-1c-5 0-9 2-12 7-3 4-4 9-4 14 0 7 2 11 5 15 3 3 7 5 12 6 4 0 9 1 15 2s10 3 14 5c7 5 11 20 11 47l-1 18v298c-1 6-1 10-2 14 0 4-1 8-2 12 0 4-2 8-3 11l-5 5c-4 3-9 4-15 4-7 1-12 1-17 1s-10 2-13 5c-4 3-6 8-6 14s1 11 4 16c2 5 6 7 11 7 10 0 25 0 45-1s35-1 45-1c9 0 23 0 41 1 19 1 33 1 42 1 5 0 9-2 12-7s4-10 4-16-2-11-5-14c-4-3-8-5-13-5s-10 0-16-1-11-2-14-4c-8-5-12-22-12-52l1-104v-11h253v11l1 104c0 30-4 47-12 52-3 3-10 4-19 4s-16 2-22 4c-5 3-8 8-8 17 0 5 1 10 4 15s7 8 12 8c10 0 24-1 43-2s34-1 43-1 24 0 42 1c19 1 33 2 42 2 6 0 10-3 12-8 3-4 5-10 5-15q0-10.5-6-15c-4-2-9-4-13-4-5 0-11-1-17-1s-11-2-14-4c-7-5-11-23-11-53V236c0-26 4-41 11-45 4-2 9-4 15-5 7-1 13-1 18-1 5-1 10-2 13-5 4-4 6-8 6-15 0-6-1-11-4-16s-7-7-12-7m53 61q0 7.5 3 15c1 5 4 9 7 12s6 6 11 8c4 2 9 3 14 3q9 0 15-3c4-2 7-5 9-8s5-7 6-10c1-4 1-8 1-11s0-7-1-11c-1-5-4-9-6-12 2-3 4-6 7-8 3-3 7-5 11-7 4-1 8-3 13-3 4-1 9-2 14-2 10 0 20 2 27 5 8 4 15 8 20 14q7.5 9 12 21c4.5 12 4 17 4 26s-1 18-3 26q-3 13.5-12 24c-6 7-13 12-23 16-10 5-21 7-36 7h-12c-3 0-5-1-8-1h-6v36c2-1 4-1 5-1h4c24 0 43 5 56 16 13 12 20 28 20 49 0 9-1 16-3 23-1 7-4 13-8 18s-9 8-15 11-12 4-21 4c-4 0-9 0-13-1s-8-3-11-5l-9-6c-3-3-5-5-6-8 3-4 5-8 6-13 1-4 2-9 2-12s-1-7-2-10-3-7-6-10c-2-4-6-6-10-9-5-2-10-3-16-3s-10 1-14 3-7 5-10 8c-2 4-5 7-6 12-1 4-2 9-2 14q0 10.5 6 24c5 9 11 17 20 25s20 14 33 19 28 8 46 8c15 0 30-1 43-4 14-3 26-9 36-16s18-16 24-27c5-11 8-25 8-41 0-7-1-14-4-22-2-8-7-16-13-23-6-8-13-14-23-20s-21-11-35-14v-1c16-3 30-7 42-13 11-6 21-13 29-21 7-9 13-18 17-27 4-10 5-20 5-31 0-17-3-32-10-46s-16-24-28-33-25-16-42-20-34-7-54-7c-19 0-35 2-49 6s-25 10-33 17-16 15-20 24-6 18-6 26" horiz-adv-x="1000"/><glyph glyph-name="editor-h4" unicode="" d="M631 142c-10 0-24 0-43 1s-34 1-44 1c-9 0-24 0-43-1s-33-1-43-1q-7.5 0-12 6c-4.5 6-4 10-4 15q0 10.5 6 15c6 4.5 7 5 12 6s10 1 17 2 11 3 14 5c7 4 11 19 11 45v127c0 5 0 8-1 10-3 1-8 2-16 2H266c-8 0-14-1-17-2v-10l-1-120c0-31 5-49 12-54 4-2 9-4 16-4s14-1 19-1 10-2 15-5 6-8 6-15c0-6-1-11-4-16s-7-6-12-6c-10 0-25 0-45 1s-35 1-45 1-24 0-42-1-32-1-41-1q-7.5 0-12 6c-4.5 6-4 10-4 15 0 7 2 11 5 15s7 5 12 5 9 2 15 3 10 3 14 5c7 5 11 20 11 47l-1 18v297c0 5-1 10-2 14s-1 8-2 12-2 8-3 11-4 4-5 5c-4 3-9 4-15 4s-12 1-17 1-10 2-13 5-6 8-6 14 1 11 4 16 6 7 11 7c10 0 25 0 45-1s35-1 45-1c9 0 23 0 41 1s33 1 42 1c5 0 9-3 12-7s4-10 4-16c0-7-2-11-5-14s-8-5-13-5-10-1-16-1-11-2-14-4c-8-5-12-22-12-52l1-105v-10c3-1 7-1 13-1h227c6 0 10 1 13 1v10l1 105c0 30-4 47-12 52-3 2-10 3-19 4s-16 1-22 4-8 8-8 16c0 6 1 11 4 16s7 7 12 7c10 0 24 0 43-1s34-1 43-1 24 0 42 1 33 1 42 1c6 0 10-2 12-7s5-10 5-16-2-11-6-14-9-5-13-5h-17c-6 0-11-2-14-5-7-5-11-22-11-52V236c0-26 4-41 11-46 4-2 9-3 15-4s13-1 18-2 10-2 13-5 6-8 6-14-1-11-4-16-7-7-12-7m244 90v-22c0-5 0-8-1-12s0-8 0-11-1-6-1-8l37 2v-39H768v33c5 0 10 1 15 2s8 2 11 5 5 7 7 13 2 14 2 24v14H673v46l172 221h30V278h49v-46zm-156 47h84v110z" horiz-adv-x="1000"/><glyph glyph-name="editor-h5" unicode="" d="M631 142c-10 0-24 0-43 1s-34 1-44 1c-9 0-24 0-43-1s-33-1-43-1q-7.5 0-12 6c-4.5 6-4 10-4 15q0 10.5 6 15c6 4.5 7 5 12 6s10 1 17 2 11 3 14 5c7 4 11 19 11 45v127c0 5 0 8-1 10-3 1-8 2-16 2H266c-8 0-14-1-17-2v-10l-1-120c0-31 5-49 12-54 4-2 9-4 16-4s14-1 19-1 10-2 15-5 6-8 6-15c0-6-1-11-4-16s-7-6-12-6c-10 0-25 0-45 1s-35 1-45 1-24 0-42-1-32-1-41-1q-7.5 0-12 6c-4.5 6-4 10-4 15 0 7 2 11 5 15s7 5 12 5 9 2 15 3 10 3 14 5c7 5 11 20 11 47l-1 18v297c0 5-1 10-2 14s-1 8-2 12-2 8-3 11-4 4-5 5c-4 3-9 4-15 4s-12 1-17 1-10 2-13 5-6 8-6 14 1 11 4 16 6 7 11 7c10 0 25 0 45-1s35-1 45-1c9 0 23 0 41 1s33 1 42 1c5 0 9-3 12-7s4-10 4-16c0-7-2-11-5-14s-8-5-13-5-10-1-16-1-11-2-14-4c-8-5-12-22-12-52l1-105v-10c3-1 7-1 13-1h227c6 0 10 1 13 1v10l1 105c0 30-4 47-12 52-3 2-10 3-19 4s-16 1-22 4-8 8-8 16c0 6 1 11 4 16s7 7 12 7c10 0 24 0 43-1s34-1 43-1 24 0 42 1 33 1 42 1c6 0 10-2 12-7s5-10 5-16-2-11-6-14-9-5-13-5h-17c-6 0-11-2-14-5-7-5-11-22-11-52V236c0-26 4-41 11-46 4-2 9-3 15-4s13-1 18-2 10-2 13-5 6-8 6-14-1-11-4-16-7-7-12-7m118 46c1-3 4-6 6-8s7-4 10-6 8-3 12-4 8-1 11-1c10 0 19 2 26 6s12 10 17 17 7 14 9 22 3 17 3 26v17q0 9-3 18c-1 7-3 13-5 19s-7 12-11 16-10 9-16 12-15 5-25 5c-7 0-16-2-26-4s-22-8-34-15l-21 17-2 167h130c6 0 11 0 15 1s9 2 13 5 5 5 7 10 3 10 3 16h31l-4-81-157-3v-89c4 2 8 4 13 5s10 3 16 4 11 2 16 2 11 1 16 1q31.5 0 54-9c22.5-9 27-14 37-25s18-22 23-36 7-28 7-42c0-19-3-36-10-51s-17-27-30-37-25-17-41-22-31-7-47-7c-17 0-32 2-44 6s-24 10-33 16-15 14-20 22-7 16-7 24q0 7.5 3 15c3 7.5 4 8 7 12s7 6 11 9 9 3 14 3q9 0 15-3c6-3 7-5 10-8s4-7 5-11 2-7 2-11c0-3 0-6-1-10s-3-7-5-10" horiz-adv-x="1000"/><glyph glyph-name="editor-h6" unicode="" d="M631 142c-10 0-24 0-43 1s-34 1-44 1c-9 0-24 0-43-1s-33-1-43-1q-7.5 0-12 6c-4.5 6-4 10-4 15q0 10.5 6 15c6 4.5 7 5 12 6s10 1 17 2 11 3 14 5c7 4 11 19 11 45v127c0 5 0 8-1 10-3 1-8 2-16 2H266c-8 0-14-1-17-2v-10l-1-120c0-31 5-49 12-54 4-2 9-4 16-4s14-1 19-1 10-2 15-5 6-8 6-15c0-6-1-11-4-16s-7-6-12-6c-10 0-25 0-45 1s-35 1-45 1-24 0-42-1-32-1-41-1q-7.5 0-12 6c-4.5 6-4 10-4 15 0 7 2 11 5 15s7 5 12 5 9 2 15 3 10 3 14 5c7 5 11 20 11 47l-1 18v297c0 5-1 10-2 14s-1 8-2 12-2 8-3 11-4 4-5 5c-4 3-9 4-15 4s-12 1-17 1-10 2-13 5-6 8-6 14 1 11 4 16 6 7 11 7c10 0 25 0 45-1s35-1 45-1c9 0 23 0 41 1s33 1 42 1c5 0 9-3 12-7s4-10 4-16c0-7-2-11-5-14s-8-5-13-5-10-1-16-1-11-2-14-4c-8-5-12-22-12-52l1-105v-10c3-1 7-1 13-1h227c6 0 10 1 13 1v10l1 105c0 30-4 47-12 52-3 2-10 3-19 4s-16 1-22 4-8 8-8 16c0 6 1 11 4 16s7 7 12 7c10 0 24 0 43-1s34-1 43-1 24 0 42 1 33 1 42 1c6 0 10-2 12-7s5-10 5-16-2-11-6-14-9-5-13-5h-17c-6 0-11-2-14-5-7-5-11-22-11-52V236c0-26 4-41 11-46 4-2 9-3 15-4s13-1 18-2 10-2 13-5 6-8 6-14-1-11-4-16-7-7-12-7m164 183q-7.5 0-15-3c-5-2-10-4-14-7-5-3-8-7-12-10-3-5-6-9-8-13 0-8 0-17 1-26s1-18 3-27 4-18 6-26 6-16 10-23 8-12 13-16q7.5-6 18-6c8 0 16 2 21 6 6 4 11 9 14 16 3 6 6 13 7 21s2 17 2 25v17c0 6-1 13-2 20s-3 12-5 19c-2 6-4 11-8 16s-7 9-12 12c-6 3-11 5-19 5m106 108c0-5-1-9-2-13s-3-9-6-12-6-6-10-8-8-3-14-3-11 1-16 3c-4 2-7 5-10 8s-5 7-5 10-2 7-2 11c0 3 0 6 2 10s2 8 5 11c-3 4-7 8-12 10-5 3-12 5-19 5-9 0-16-2-23-6-6-4-12-9-17-15s-9-14-12-23q-6-12-9-27c-3-15-3-19-4-29s-2-20-2-29c3 4 7 7 11 10 5 4 11 7 17 9 6 3 13 5 20 7 6 2 13 3 20 3q25.5 0 45-9c19.5-9 24-14 32-24s15-22 19-37c4-14 6-29 6-46 0-16-3-31-10-44-6-15-14-27-25-37s-24-19-39-25-31-9-49-9c-22 0-41 4-56 11s-28 20-37 34-16 33-21 54c-4 20-6 44-6 70 0 9 1 21 3 34s4 28 8 42c3 15 9 29 15 44 7 14 15 27 25 38s23 21 37 28 30 11 49 11c16 0 30-2 41-7s21-9 28-15c8-7 13-14 17-22 5-8 6-16 6-23" horiz-adv-x="1000"/><glyph glyph-name="editor-quote" unicode="" d="M482 584V371q0-31.5-12-60c-8-19-19-36-33-50-14-13-30-25-49-33q-30-12-60-12h-20c-5 0-9 2-13 6s-6 8-6 14v39c0 5 2 9 6 13 3 4 8 6 13 6h20c21 0 39 8 54 23s23 33 23 54v10c0 8-3 15-9 20-6 6-12 9-20 9h-68c-16 0-30 5-41 17-12 11-17 25-17 41v116c0 16 5 30 17 41 11 11 25 17 41 17h116c16 0 30-6 41-17 12-12 17-25 17-41m271 0V371q0-31.5-12-60c-8-19-19-36-33-50-14-13-30-25-50-33q-28.5-12-60-12h-19c-5 0-9 2-14 6s-5 8-5 14v39c0 5 2 9 5 13 4 4 9 6 14 6h19c22 0 40 8 55 23s22 33 22 54v10c0 8-2 15-8 20s-12 9-20 9h-68c-16 0-30 5-41 17-11 11-17 25-17 41v116c0 16 6 30 17 41s25 17 41 17h116c17 0 30-6 42-17 11-12 16-25 16-41" horiz-adv-x="1000"/><glyph glyph-name="editor-code" unicode="" d="M770 139c-8 0-17 3-24 9-13 13-14 35-1 49l141 149-139 137c-13 14-14 35 0 49 13 13 35 14 48 1l163-162c14-13 14-35 1-48L795 150c-7-8-16-11-25-11M414 13l274 615c8 17 0 37-18 45-17 8-37 0-45-18L351 41c-8-18 0-38 18-46 4-2 9-3 14-3 13 0 25 8 31 21M271 148c14 13 14 35 2 49L131 345l139 138c14 14 14 35 1 49-13 13-35 14-49 1L59 371c-13-13-14-35-1-48l165-173c7-7 16-11 25-11 8 0 17 3 23 9" horiz-adv-x="1000"/><glyph glyph-name="elementor" unicode="" d="M0 850h200V-150H0zM400 50h600v-200H400zm0 400h600V250H400zm0 400h600V650H400z" horiz-adv-x="1000"/><glyph glyph-name="elementor-circle" unicode="" d="M500 850C224 850 0 626 0 350s224-500 500-500 500 224 500 500-224 500-500 500M375 142h-83v416h83zm333 0H458v83h250zm0 166H458v84h250zm0 167H458v83h250z" horiz-adv-x="1000"/><glyph glyph-name="pojome" unicode="" d="M500-150a474 474 0 0 0-188 37l-12 6v272l32-22a407 407 0 0 1 80-44 292 292 0 0 1 191 6 286 286 0 0 1 87 59 299 299 0 0 1 58 83 292 292 0 0 1 19 105 284 284 0 0 1-19 103 298 298 0 0 1-58 83 229 229 0 0 1-87 58 210 210 0 0 1-103 21 214 214 0 0 1-103-20 231 231 0 0 1-87-58 256 256 0 0 1-54-83 251 251 0 0 1-22-103V-76l-34 26a559 559 0 0 0-53 46A484 484 0 0 0 0 350a487 487 0 0 0 147 356 489 489 0 0 0 353 144 488 488 0 0 0 353-144 487 487 0 0 0 147-356A484 484 0 0 0 853-3a484 484 0 0 0-353-147M341-79a435 435 0 0 1 159-29A443 443 0 0 1 824 26a444 444 0 0 1 134 324 447 447 0 0 1-134 327 448 448 0 0 1-324 130 448 448 0 0 1-324-130A447 447 0 0 1 42 350 444 444 0 0 1 177 26l15-15v342a292 292 0 0 0 25 119 295 295 0 0 0 66 95 268 268 0 0 0 100 68 252 252 0 0 0 117 23 251 251 0 0 0 118-22 270 270 0 0 0 99-69 340 340 0 0 0 67-95 325 325 0 0 0 23-119 333 333 0 0 0-23-122 341 341 0 0 0-67-98 328 328 0 0 0-99-68 330 330 0 0 0-221-7 462 462 0 0 0-56 31V-78zm159 232a222 222 0 0 0-76 13 214 214 0 0 0-64 43 287 287 0 0 0-44 62 194 194 0 0 0-17 82 187 187 0 0 0 17 77 210 210 0 0 0 106 106 223 223 0 0 0 154 0 215 215 0 0 0 64-43 159 159 0 0 0 44-65 184 184 0 0 0 16-76 194 194 0 0 0-17-80 190 190 0 0 0-44-63 212 212 0 0 0-63-44 222 222 0 0 0-76-12m0 356a180 180 0 0 1-62-11 168 168 0 0 1-84-87 145 145 0 0 1-13-60 152 152 0 0 1 13-63 243 243 0 0 1 36-52 171 171 0 0 1 50-34 188 188 0 0 1 122 0 170 170 0 0 1 49 34 151 151 0 0 1 35 50 154 154 0 0 1 13 64 145 145 0 0 1-13 60 119 119 0 0 1-34 50 174 174 0 0 1-52 36 180 180 0 0 1-60 13" horiz-adv-x="1000"/><glyph glyph-name="plus" unicode="" d="M454 704c-12-12-16-25-16-41V417H188q-63 0-63-63c0-63 21-62 63-62h250V46c0-17 4-33 16-46 13-13 29-17 46-17s33 4 42 17c12 13 21 25 21 46v246h245c42 0 63 21 63 62s-21 63-63 63H563v246c0 16-5 29-21 41-13 13-25 17-42 17s-33-4-46-17" horiz-adv-x="1000"/><glyph glyph-name="menu-bar" unicode="" d="M104 517h792c33 0 62 29 62 62s-29 63-62 63H104c-33 0-62-29-62-63s29-62 62-62m0-250h792c33 0 62 29 62 62s-29 63-62 63H104c-33 0-62-29-62-63s29-62 62-62m0-250h792c33 0 62 29 62 62s-29 63-62 63H104c-33 0-62-29-62-63s29-62 62-62" horiz-adv-x="1000"/><glyph glyph-name="apps" unicode="" d="M167 517h166v166H167zM417 17h166v166H417zm-250 0h166v166H167zm0 250h166v166H167zm250 0h166v166H417zm250 416V517h166v166zM417 517h166v166H417zm250-250h166v166H667zm0-250h166v166H667z" horiz-adv-x="1000"/><glyph glyph-name="accordion" unicode="" d="M938 600H63c-35 0-63-28-63-62V163c0-35 28-63 63-63h875c34 0 62 28 62 63v375c0 34-28 62-62 62m20-437c0-12-9-21-20-21H63c-12 0-21 9-21 21v375c0 11 9 20 21 20h875c11 0 20-9 20-20zM104 683h792c11 0 21 10 21 21s-10 21-21 21H104c-11 0-21-9-21-21s10-21 21-21m0 125h792c11 0 21 10 21 21s-10 21-21 21H104c-11 0-21-9-21-21s10-21 21-21m792-916H104c-11 0-21-10-21-21s10-21 21-21h792c11 0 21 9 21 21s-10 21-21 21m0 125H104C93 17 83 7 83-4s10-21 21-21h792c11 0 21 9 21 21s-10 21-21 21" horiz-adv-x="1000"/><glyph glyph-name="alert" unicode="" d="M500 829C236 829 21 614 21 350s215-479 479-479S979 86 979 350 764 829 500 829m0-917C259-88 63 109 63 350s196 438 437 438 438-197 438-438S741-88 500-88m0 542c-34 0-62-28-62-62V142c0-35 28-63 62-63s63 28 63 63v250c0 34-28 62-63 62m21-312c0-12-9-21-21-21s-21 9-21 21v250c0 11 10 21 21 21s21-10 21-21zm-21 479c-34 0-62-28-62-63s28-62 62-62 63 28 63 62-28 63-63 63m0-83c-11 0-21 9-21 20s10 21 21 21 21-9 21-21-9-20-21-20" horiz-adv-x="1000"/><glyph glyph-name="animation-text" unicode="" d="M165 545c-6 16-33 16-39 0L1 212c-4-11 2-23 13-27 10-4 22 1 26 12l42 112c1 0 1-1 1-1h125c1 0 1 1 1 1l42-112c4-8 11-14 20-14 2 0 5 1 7 2 11 4 16 16 12 27zM98 350l48 128 48-128zm590 83c34 0 62-28 62-62 0-12 9-21 21-21s21 9 21 21c0 57-47 104-104 104s-105-47-105-104v-83c0-58 47-105 105-105s104 47 104 105c0 11-10 20-21 20s-21-9-21-20c0-35-28-63-62-63s-63 28-63 63v83c0 34 28 62 63 62m-250 42c-24 0-45-8-63-21v84c0 11-9 20-21 20s-21-9-21-20V204c0-11 10-21 21-21s21 10 21 21v1c18-13 39-22 63-22 57 0 104 47 104 105v83c0 57-47 104-104 104m62-187c0-35-28-63-62-63s-63 28-63 63v83c0 34 28 62 63 62s62-28 62-62zM997 49c-1 2-27 41-80 49v210h21c11 0 20 10 20 21s-9 21-20 21h-21v252c53 9 79 48 80 49 6 10 3 23-7 29-9 6-22 3-28-6-1-2-22-32-66-32s-65 30-66 32c-6 9-19 12-28 6-10-6-13-19-7-28 1-2 26-41 80-50V350h-21c-11 0-21-9-21-21s10-21 21-21h21V98c-54-8-79-48-80-49-6-10-3-23 6-29 10-6 23-3 29 6 1 2 22 32 66 32s65-30 66-31c4-7 10-10 17-10 4 0 8 1 11 3 10 6 13 19 7 29" horiz-adv-x="1000"/><glyph glyph-name="animation" unicode="" d="M973 365 765 573c-2 2-4 4-7 5h-3c-2 1-3 1-5 1h-3c-2-1-3-1-5-1-2-1-5-3-7-5L527 365c-8-8-8-22 0-30l208-208c1-1 2-1 3-2s2-2 4-2c3-2 5-2 8-2s5 0 8 2c2 0 4 2 6 4h1l208 208c8 8 8 22 0 30m-339-77 95 95v-66l-62-62zm95-30v-66l-33 33zm0 250v-66L604 317l-33 33zm42-316v316l158-158zM348 490c-8 8-21 8-29 0L194 365c-8-8-8-22 0-30l125-125c4-4 9-6 14-6q9 0 15 6c8 8 8 22 0 30L238 350l110 110c8 8 8 22 0 30m57-140 151 152c9 8 9 21 0 29s-21 9-29 0L360 365c-8-8-8-22 0-30l167-166q6-6 15-6c9 0 10 2 14 6 9 8 9 21 0 29zm-265 98c-8 8-22 8-30 0l-83-83c-8-8-8-22 0-30l83-83c4-4 10-6 15-6s11 2 15 6c8 8 8 21 0 29l-69 69 69 69c8 8 8 21 0 29" horiz-adv-x="1000"/><glyph glyph-name="banner" unicode="" d="M999 378c-2 6-7 11-13 13l-113 37 22 105c2 6 1 11-3 16-3 5-7 8-13 9-9 2-220 42-379 42s-370-40-379-42c-5-1-10-4-13-9s-4-10-3-16l22-105-113-37c-6-2-10-7-13-13-2-6-1-12 2-18l59-98-20-138c-1-7 2-15 7-19 4-3 9-5 14-5 2 0 4 0 7 1 1 1 169 62 243 62 6 0 12 3 16 8s5 11 4 18l-16 62c54 8 118 16 183 16s129-8 183-16l-16-63c-1-6 0-12 4-17s10-8 17-8c73 0 241-61 242-62 3-1 5-1 8-1 4 0 9 2 13 5 5 4 8 12 7 19l-20 138 59 98c3 6 4 12 2 18M286 203c-62-7-151-35-198-51l16 112c1 5 0 9-3 14l-49 81 84 28 31-145c1-6 5-11 10-14 3-2 7-3 11-3 1 0 3 0 5 1 1 0 33 9 83 18zm214 105c-125 0-248-25-297-37l-53 250c58 10 223 37 350 37s292-27 350-37l-53-250c-49 12-172 37-297 37m399-31c-3-4-4-8-3-13l16-112c-47 16-136 44-198 51l10 41c50-9 82-18 83-18 6-2 12-1 16 2 5 3 9 8 10 14l31 145 84-28z" horiz-adv-x="1000"/><glyph glyph-name="blockquote" unicode="" d="M396 683H104c-34 0-62-28-62-62V329c0-34 28-62 62-62h104v-69c0-40-22-75-57-93L53 56c-8-4-13-14-11-23 2-10 11-16 21-16h141c99 0 186 63 217 156 25 74 37 150 37 228v220c0 34-28 62-62 62m21-282c0-73-12-145-35-214-26-77-97-129-178-129h-53l18 10c50 25 81 75 81 130v90c0 11-9 20-21 20H104c-11 0-21 10-21 21v292c0 11 10 21 21 21h292c11 0 21-10 21-21zm479 282H604c-34 0-62-28-62-62V329c0-34 28-62 62-62h104v-69c0-40-22-75-57-93l-98-49c-8-4-13-14-11-23 2-10 11-16 21-16h141c99 0 186 63 217 156 25 74 37 150 37 228v220c0 34-28 62-62 62m21-282c0-73-12-145-35-214-26-77-97-129-178-129h-53l18 10c50 25 81 75 81 130v90c0 11-9 20-21 20H604c-11 0-21 10-21 21v292c0 11 10 21 21 21h292c11 0 21-10 21-21z" horiz-adv-x="1000"/><glyph glyph-name="button" unicode="" d="M451 470c-6 5-15 7-22 3-8-3-12-11-12-19V79c0-8 5-16 13-19 7-3 16-1 22 4l63 63 71-141c2-5 7-9 12-10 2-1 4-1 6-1 4 0 8 1 11 3l93 54c5 3 8 8 10 13 1 6 0 11-3 16l-74 122h88c9 0 17 6 20 14s0 17-6 23zm153-245c-7 0-14-4-18-11-4-6-4-14 0-21l83-135-56-33-73 147c-3 6-9 10-16 11h-3q-9 0-15-6l-48-47v279l215-184zm292 500H104C47 725 0 678 0 621V371c0-58 47-104 104-104h250c12 0 21 9 21 21s-9 20-21 20H104c-34 0-62 28-62 63v250c0 34 28 62 62 62h792c34 0 62-28 62-62V371c0-35-28-63-62-63H750c-11 0-21-9-21-20s10-21 21-21h146c57 0 104 46 104 104v250c0 57-47 104-104 104" horiz-adv-x="1000"/><glyph glyph-name="call-to-action" unicode="" d="M938 621H63c-35 0-63-28-63-63V142c0-35 28-63 63-63h875c34 0 62 28 62 63v416c0 35-28 63-62 63m20-479c0-12-9-21-20-21H63c-12 0-21 9-21 21v416c0 12 9 21 21 21h875c11 0 20-9 20-21zM729 496c-80 0-146-66-146-146s66-146 146-146 146 66 146 146-65 146-146 146m0-250c-57 0-104 47-104 104s47 104 104 104 104-47 104-104-46-104-104-104m-250 0H146c-12 0-21-9-21-21s9-21 21-21h333c12 0 21 10 21 21s-9 21-21 21m0 125H146c-12 0-21-9-21-21s9-21 21-21h333c12 0 21 10 21 21s-9 21-21 21m0 125H146c-12 0-21-9-21-21s9-21 21-21h333c12 0 21 10 21 21s-9 21-21 21" horiz-adv-x="1000"/><glyph glyph-name="captcha" unicode="" d="M104 246c-11 0-21-9-21-21s-9-21-20-21-21 10-21 21v83c0 12 9 21 21 21s20-9 20-21 10-20 21-20 21 9 21 20c0 35-28 63-62 63S0 343 0 308v-83c0-34 28-62 63-62s62 28 62 62c0 12-9 21-21 21m417 104c11 0 21-9 21-21s9-21 21-21 20 10 20 21c0 35-28 63-62 63s-63-28-63-63v-83c0-35 28-63 63-63s62 28 62 63c0 11-9 21-20 21s-21-10-21-21-10-21-21-21-21 9-21 21v83c0 12 9 21 21 21m478-159-63 166c-6 17-33 17-39 0l-62-166c-4-11 1-23 12-27s23 1 27 12l10 28h65l11-28c3-8 11-13 19-13 3 0 5 0 8 1 10 4 16 16 12 27m-99 55 17 45 17-45zm-672 28c-6 16-33 16-39 0l-63-167c-4-10 2-22 13-26 10-4 22 1 26 12l11 28h65l10-28c4-9 11-14 20-14 2 0 5 1 7 2 11 4 16 16 12 26zm-36-111 16 44 17-44zm162 291h-41c-12 0-21-9-21-21V267c0-12 9-21 21-21s20 9 20 21v62h21c35 0 63 28 63 63s-28 62-63 62m0-83h-21v42h21c12 0 21-10 21-21s-9-21-21-21m417-83c-12 0-21-10-21-21v-63h-83v63c0 11-10 21-21 21s-21-10-21-21V100c0-11 9-21 21-21s21 10 21 21v63h83v-63c0-11 9-21 21-21s21 10 21 21v167c0 11-10 21-21 21M458 433c0-11 10-20 21-20s21 9 21 20v146h42c11 0 21 10 21 21s-10 21-21 21H417c-12 0-21-9-21-21s9-21 21-21h41z" horiz-adv-x="1000"/><glyph glyph-name="carousel" unicode="" d="M98 406c-8 9-21 9-29 0l-42-41c-8-8-8-22 0-30l42-41c4-4 9-6 14-6s11 2 15 6c8 8 8 21 0 29l-27 27 27 27c8 8 8 21 0 29m875-41-42 41c-8 9-21 9-29 0s-8-21 0-29l27-27-27-27c-8-8-8-21 0-29q6-6 15-6c9 0 10 2 14 6l42 41c8 8 8 22 0 30m-640 68H167c-12 0-21-9-21-20V288c0-12 9-21 21-21h166c12 0 21 9 21 21v125c0 11-9 20-21 20m-20-125H188v84h125zm270 125H417c-12 0-21-9-21-20V288c0-12 9-21 21-21h166c12 0 21 9 21 21v125c0 11-9 20-21 20m-20-125H438v84h125zm270 125H667c-12 0-21-9-21-20V288c0-12 9-21 21-21h166c12 0 21 9 21 21v125c0 11-9 20-21 20m-20-125H688v84h125z" horiz-adv-x="1000"/><glyph glyph-name="checkbox" unicode="" d="M229 142H63c-35 0-63-28-63-63V-88c0-34 28-62 63-62h166c35 0 63 28 63 62V79c0 35-28 63-63 63m21-230c0-11-9-20-21-20H63c-12 0-21 9-21 20V79c0 12 9 21 21 21h166c12 0 21-9 21-21zm146 730h583c12 0 21 9 21 21s-9 20-21 20H396c-12 0-21-9-21-20s9-21 21-21m583-292H396c-12 0-21-9-21-21s9-21 21-21h583c12 0 21 10 21 21s-9 21-21 21m0-333H396c-12 0-21-10-21-21s9-21 21-21h583c12 0 21 9 21 21s-9 21-21 21M295 841l-30-44c-10 7-23 11-36 11H63c-35 0-63-28-63-62V579c0-34 28-62 63-62h166c35 0 63 28 63 62v167c0 5-1 10-2 14l40 57c6 10 4 23-6 29-9 7-22 5-29-5m-45-262c0-11-9-21-21-21H63c-12 0-21 10-21 21v167c0 11 9 21 21 21h166c5 0 8-2 12-4l-77-110-45 45c-8 8-21 8-30 0s-8-21 0-29l63-63q6-6 15-6h2q9 1.5 15 9l66 95zm45-71-30-44c-10 7-23 11-36 11H63c-35 0-63-28-63-62V246c0-35 28-63 63-63h166c35 0 63 28 63 63v167c0 5-1 9-2 14l40 57c6 9 4 22-6 29-9 7-22 4-29-5m-45-262c0-12-9-21-21-21H63c-12 0-21 9-21 21v167c0 11 9 20 21 20h166c5 0 8-1 12-3l-77-110-45 45c-8 8-21 8-30 0s-8-22 0-30l63-62q6-6 15-6h2c6 0 11 4 15 9l66 94z" horiz-adv-x="1000"/><glyph glyph-name="columns" unicode="" d="M438 683H21c-12 0-21-9-21-20s9-21 21-21h417c11 0 20 9 20 21s-9 20-20 20m0-125H21c-12 0-21-9-21-20s9-21 21-21h417c11 0 20 9 20 21s-9 20-20 20m0-125H21c-12 0-21-9-21-20s9-21 21-21h417c11 0 20 9 20 21s-9 20-20 20m0-125H21c-12 0-21-9-21-20s9-21 21-21h417c11 0 20 9 20 21s-9 20-20 20m0-125H21c-12 0-21-9-21-20s9-21 21-21h417c11 0 20 9 20 21s-9 20-20 20M313 58H21C9 58 0 49 0 38s9-21 21-21h292c11 0 20 9 20 21s-9 20-20 20m250 584h416c12 0 21 9 21 21s-9 20-21 20H563c-12 0-21-9-21-20s9-21 21-21m416-84H563c-12 0-21-9-21-20s9-21 21-21h416c12 0 21 9 21 21s-9 20-21 20m0-125H563c-12 0-21-9-21-20s9-21 21-21h416c12 0 21 9 21 21s-9 20-21 20m0-125H563c-12 0-21-9-21-20s9-21 21-21h416c12 0 21 9 21 21s-9 20-21 20m0-125H563c-12 0-21-9-21-20s9-21 21-21h416c12 0 21 9 21 21s-9 20-21 20M854 58H563c-12 0-21-9-21-20s9-21 21-21h291c12 0 21 9 21 21s-9 20-21 20" horiz-adv-x="1000"/><glyph glyph-name="countdown" unicode="" d="m779 624 50 68c7 9 5 22-4 29s-22 5-29-4l-50-68c-54 37-116 61-183 71v88h20c12 0 21 10 21 21s-9 21-21 21H417c-12 0-21-9-21-21s9-21 21-21h21v-88c-67-10-130-34-183-70l-51 67c-7 9-20 11-29 4s-11-20-4-29l50-68C124 544 63 423 63 288c0-242 196-438 437-438S938 46 938 288c0 135-62 256-159 336M479 808h42v-84c-7 0-14 1-21 1s-14-1-21-1zm21-916c-218 0-396 177-396 396s178 395 396 395 396-177 396-395-178-396-396-396m0 750c-11 0-21-10-21-21V288c0-12 10-21 21-21h333c12 0 21 9 21 21 0 195-159 354-354 354m21-334v291c156-10 281-135 291-291z" horiz-adv-x="1000"/><glyph glyph-name="counter" unicode="" d="M994 584 869 709c-2 1-4 3-7 4-1 1-3 1-4 1-2 0-3 1-4 1s-3-1-4-1c-1-1-3-1-4-1-2-1-5-3-7-5L715 584c-9-9-9-22 0-30s21-8 29 0l89 89V6c0-11 10-21 21-21s21 10 21 21v637l89-89q7.5-6 15-6c7.5 0 11 2 15 6 8 8 8 21 0 30m-884-79c-8 3-18 0-23-8L4 372c-7-10-4-22 5-29 10-6 23-4 29 6l45 68V152c0-11 10-21 21-21s21 10 21 21v333c0 10-6 18-15 20m203 1c-58 0-105-46-105-104 0-11 10-21 21-21s21 10 21 21c0 35 28 63 63 63s62-28 62-63v-12c0-14-5-28-14-39L213 165c-5-6-6-15-3-22 4-7 11-12 19-12h167c11 0 21 10 21 21s-10 21-21 21H273l121 152c15 18 23 41 23 65v12c0 58-47 104-104 104m395-104c0 58-46 104-104 104s-104-46-104-104c0-11 9-21 21-21s21 10 21 21c0 35 28 63 62 63s63-28 63-63-28-62-63-62c-11 0-21-10-21-21s10-21 21-21c35 0 63-28 63-63s-28-62-63-62-62 28-62 62c0 12-10 21-21 21s-21-9-21-21c0-57 47-104 104-104s104 47 104 104c0 35-16 65-41 84 25 19 41 49 41 83" horiz-adv-x="1000"/><glyph glyph-name="date" unicode="" d="M938 663H63c-35 0-63-28-63-63V100c0-34 28-62 63-62h875c34 0 62 28 62 62v500c0 35-28 63-62 63m20-563c0-11-9-21-20-21H63c-12 0-21 10-21 21v500c0 12 9 21 21 21h875c11 0 20-9 20-21zM403 536c-11 4-23-1-27-12L251 191c-4-11 2-23 13-27 2-1 4-1 7-1 8 0 16 5 19 13l125 333c4 11-1 23-12 27m334 0c-11 4-23-1-27-12L585 191c-4-11 1-23 12-27 2-1 5-1 7-1 9 0 17 5 20 13l125 333c4 11-2 23-12 27M188 204h-84c-11 0-21-9-21-21 0-11 10-20 21-20h84c11 0 20 9 20 20s-9 21-20 21m333 0H354c-11 0-21-9-21-21 0-11 10-20 21-20h167c11 0 21 9 21 20s-10 21-21 21m375 0H688c-12 0-21-9-21-21 0-11 9-20 21-20h208c11 0 21 9 21 20s-10 21-21 21" horiz-adv-x="1000"/><glyph glyph-name="divider-shape" unicode="" d="M991 409c-9 6-22 4-29-5-15-21-62-75-103-75-40 0-88 54-103 75-8 11-26 11-34 0-15-21-62-75-103-75s-87 54-102 75c-4 5-11 9-17 9-7 0-13-4-17-9-15-21-63-75-103-75s-88 54-103 75c-4 5-10 9-17 9-6 0-13-4-17-9-15-21-62-75-102-75-41 0-88 54-103 75-7 9-20 11-29 5-10-7-12-20-5-29 7-10 68-92 137-92 49 0 95 43 119 70 24-27 70-70 120-70s96 43 120 71c24-28 70-71 119-71 50 0 96 43 120 71 24-28 70-71 120-71 69 0 130 82 137 92 7 9 5 22-5 29" horiz-adv-x="1000"/><glyph glyph-name="divider" unicode="" d="M42 454h916c12 0 21 10 21 21s-9 21-21 21H42c-12 0-21-9-21-21s9-21 21-21m333 167h250c8 0 15 5 19 12s2 15-2 21L517 821c-8 11-26 11-34 0L358 654c-4-6-5-14-2-21 4-7 11-12 19-12m125 153 83-111H417zM625 79H375c-8 0-15-4-19-11-3-7-2-16 2-22l125-167c4-5 11-8 17-8s13 3 17 8L642 46c4 6 5 15 2 22-4 7-11 11-19 11M500-73 417 38h166zm458 319H42c-12 0-21-9-21-21s9-21 21-21h916c12 0 21 10 21 21s-9 21-21 21" horiz-adv-x="1000"/><glyph glyph-name="download-button" unicode="" d="M875 704H125c-57 0-104-47-104-104V350c0-57 47-104 104-104h292c11 0 21 9 21 21s-10 21-21 21H125c-34 0-62 28-62 62v250c0 35 28 63 62 63h750c35 0 63-28 63-63V350c0-34-28-62-63-62H583c-11 0-20-10-20-21s9-21 20-21h292c57 0 104 47 104 104v250c0 57-47 104-104 104M610 156l-89-89v366c0 12-9 21-21 21s-21-9-21-21V67l-89 89c-8 9-22 9-30 0s-8-21 0-29L485 2c4-4 10-6 15-6s11 2 15 6l125 125c8 8 8 21 0 29-8 9-22 9-30 0" horiz-adv-x="1000"/><glyph glyph-name="dual-button" unicode="" d="M326 470c-6 5-15 7-22 3-8-3-12-11-12-19V79c0-8 5-16 13-19 7-3 16-1 22 4l63 63 71-141c2-5 7-9 12-10 2-1 4-1 6-1 4 0 8 1 11 3l93 54c5 3 9 8 10 13 1 6 0 11-3 16l-74 122h88c9 0 17 6 20 14s0 17-6 23zm153-245c-7 0-14-4-18-11-4-6-4-14 0-21l83-135-56-33-73 147c-3 6-9 10-16 11h-3q-9 0-15-6l-48-47v279l215-184zm417 500H104C47 725 0 678 0 621V371c0-58 47-104 104-104h125c12 0 21 9 21 21s-9 20-21 20H104c-34 0-62 28-62 63v250c0 34 28 62 62 62h396V392c0-12 9-21 21-21s21 9 21 21v54l238 237h66L548 386c-8-9-8-22 0-30q6-6 15-6c9 0 10 2 14 6l327 327c17-3 32-12 42-25-1-1-2-1-2-2L610 323c-7-7-7-17-3-25-1-3-3-7-3-10 0-12 10-21 21-21h271c57 0 104 47 104 104v250c0 57-47 104-104 104m-300-42-54-53v53zm-54-178v66l113 112h66zm304-197h-66l178 179v-66zm112 304v-66L721 308h-66zm-53-303 52 52c-4-26-25-47-52-52" horiz-adv-x="1000"/><glyph glyph-name="email-field" unicode="" d="M938 663H63c-35 0-63-28-63-63V100c0-34 28-62 63-62h875c34 0 62 28 62 62v500c0 35-28 63-62 63m20-563c0-11-9-21-20-21H63c-12 0-21 10-21 21v500c0 12 9 21 21 21h875c11 0 20-9 20-21zM313 579C186 579 83 476 83 350s103-229 230-229c59 0 116 23 159 64 8 8 8 22 0 30s-21 8-29 0c-35-34-81-52-130-52-104 0-188 84-188 187s84 188 188 188c102 0 185-83 187-185 0-1-1-2-1-3 0-23-19-42-42-42-21 0-39 17-41 39 0 1 1 2 1 3 0 57-47 104-104 104s-105-47-105-104 47-104 105-104c35 0 67 18 85 45 16-15 36-24 59-24 43 0 79 33 83 75 1 2 2 5 2 8 0 126-103 229-229 229m0-291c-35 0-63 28-63 62s28 63 63 63c33 0 60-27 62-60 0-1-1-2-1-3 0-2 0-3 1-5-3-32-30-57-62-57" horiz-adv-x="1000"/><glyph glyph-name="facebook-comments" unicode="" d="M896 725H104C47 725 0 678 0 621V204c0-57 47-104 104-104h262L485-19c4-4 10-6 15-6s11 2 15 6l119 119h262c57 0 104 47 104 104v417c0 57-47 104-104 104m62-521c0-34-28-62-62-62H625c-5 0-11-2-15-6L500 25 390 136q-6 6-15 6H104c-34 0-62 28-62 62v417c0 34 28 62 62 62h792c34 0 62-28 62-62zM313 600h-42c-58 0-104-47-104-104v-21h-21c-12 0-21-9-21-21s9-21 21-21h21V246c0-12 9-21 21-21s20 9 20 21v187h63c11 0 21 10 21 21s-10 21-21 21h-63v21c0 34 28 62 63 62h42c11 0 20 10 20 21s-9 21-20 21m416-292H438c-12 0-21-9-21-20s9-21 21-21h291c12 0 21 9 21 21s-9 20-21 20m125 125H438c-12 0-21-9-21-20s9-21 21-21h416c12 0 21 9 21 21s-9 20-21 20m0 125H438c-12 0-21-9-21-20s9-21 21-21h416c12 0 21 9 21 21s-9 20-21 20" horiz-adv-x="1000"/><glyph glyph-name="facebook-like-box" unicode="" d="M896 850H104C47 850 0 803 0 746V-46c0-57 47-104 104-104h792c57 0 104 47 104 104v792c0 57-47 104-104 104m62-896c0-34-28-62-62-62H104c-34 0-62 28-62 62v792c0 34 28 62 62 62h792c34 0 62-28 62-62zM761 433H605l1 20c13 27 19 56 19 85 0 30-7 61-21 88l-11 23c-11 21-32 34-56 34h-16c-34 0-63-28-63-62v-75c0-3 0-6-1-8l-75-188h-7v21c0 11-9 21-21 21H146c-12 0-21-10-21-21V-4c0-12 9-21 21-21h208c12 0 21 9 21 21v50l53-27c3-2 6-2 10-2h300c53 0 98 40 104 92l23 209c3 29-6 59-26 81s-48 34-78 34M333 17H167v333h166zm490 305-23-208c-3-32-30-56-62-56H442l-67 34v216h21c8 0 16 6 19 14l81 200c3 8 4 16 4 24v75c0 11 9 21 21 21h16c8 0 15-5 18-12l12-23c11-21 16-45 16-69s-5-48-16-70c-1-3-2-5-2-8l-2-46c-1-6 1-12 5-16s10-6 15-6h178c18 0 35-8 47-21s17-31 15-49" horiz-adv-x="1000"/><glyph glyph-name="form-horizontal" unicode="" d="M21 808h958c12 0 21 10 21 21s-9 21-21 21H21c-12 0-21-9-21-21s9-21 21-21m958-83H21c-12 0-21-9-21-21s9-21 21-21h958c12 0 21 10 21 21s-9 21-21 21m0-125H21c-12 0-21-9-21-21V79c0-11 9-21 21-21h958c12 0 21 10 21 21v500c0 12-9 21-21 21M42 558h916V213L846 100H42zm863-458 53 54v-54zM292 17H83C37 17 0-21 0-67s37-83 83-83h209c46 0 83 37 83 83s-37 84-83 84m0-125H83c-23 0-41 18-41 41s18 42 41 42h209c23 0 41-19 41-42s-18-41-41-41" horiz-adv-x="1000"/><glyph glyph-name="form-vertical" unicode="" d="M271 433H21c-12 0-21-9-21-20V288c0-12 9-21 21-21h250c11 0 21 9 21 21v125c0 11-10 20-21 20m-21-125H42v84h208zm354 125H354c-11 0-21-9-21-20V288c0-12 10-21 21-21h250c12 0 21 9 21 21v125c0 11-9 20-21 20m-21-125H375v84h208zm334 125H750c-46 0-83-37-83-83s37-83 83-83h167c46 0 83 37 83 83s-37 83-83 83m0-125H750c-23 0-42 19-42 42s19 42 42 42h167c23 0 41-19 41-42s-18-42-41-42" horiz-adv-x="1000"/><glyph glyph-name="gallery-grid" unicode="" d="M292 663H42c-12 0-21-10-21-21V392c0-12 9-21 21-21h250c11 0 21 9 21 21v250c0 11-10 21-21 21m-21-250H63v208h208zm354 250H375c-11 0-21-10-21-21V392c0-12 10-21 21-21h250c12 0 21 9 21 21v250c0 11-9 21-21 21m-21-250H396v208h208zm354 250H708c-11 0-20-10-20-21V392c0-12 9-21 20-21h250c12 0 21 9 21 21v250c0 11-9 21-21 21m-20-250H729v208h209zm-646-84H42c-12 0-21-9-21-21V58c0-11 9-20 21-20h250c11 0 21 9 21 20v250c0 12-10 21-21 21M271 79H63v209h208zm354 250H375c-11 0-21-9-21-21V58c0-11 10-20 21-20h250c12 0 21 9 21 20v250c0 12-9 21-21 21M604 79H396v209h208zm354 250H708c-11 0-20-9-20-21V58c0-11 9-20 20-20h250c12 0 21 9 21 20v250c0 12-9 21-21 21M938 79H729v209h209z" horiz-adv-x="1000"/><glyph glyph-name="gallery-group" unicode="" d="M979 621H771c-12 0-21-9-21-21V392c0-12 9-21 21-21h208c12 0 21 9 21 21v208c0 12-9 21-21 21m-21-208H792v166h166zm21-84H771c-12 0-21-9-21-21V100c0-11 9-21 21-21h208c12 0 21 10 21 21v208c0 12-9 21-21 21m-21-208H792v167h166zM688 621H21c-12 0-21-9-21-21V100c0-11 9-21 21-21h667c11 0 20 10 20 21v500c0 12-9 21-20 21m-21-500H42v458h625z" horiz-adv-x="1000"/><glyph glyph-name="gallery-justified" unicode="" d="M21 517h208c12 0 21 9 21 21v208c0 11-9 21-21 21H21c-12 0-21-10-21-21V538c0-12 9-21 21-21m21 208h166V558H42zm271-208h375c11 0 20 9 20 21v208c0 11-9 21-20 21H313c-12 0-21-10-21-21V538c0-12 9-21 21-21m20 208h334V558H333zm646 42H771c-12 0-21-10-21-21V538c0-12 9-21 21-21h208c12 0 21 9 21 21v208c0 11-9 21-21 21m-21-209H792v167h166zm-270-83H479c-11 0-21-9-21-21V246c0-12 10-21 21-21h209c11 0 20 9 20 21v208c0 12-9 21-20 21m-21-208H500v166h167zM21 225h375c11 0 21 9 21 21v208c0 12-10 21-21 21H21c-12 0-21-9-21-21V246c0-12 9-21 21-21m21 208h333V267H42zm937 42H771c-12 0-21-9-21-21V246c0-12 9-21 21-21h208c12 0 21 9 21 21v208c0 12-9 21-21 21m-21-208H792v166h166zm-770-84H21c-12 0-21-9-21-20V-46c0-11 9-21 21-21h167c11 0 20 10 20 21v209c0 11-9 20-20 20M167-25H42v167h125zm437 208H271c-12 0-21-9-21-20V-46c0-11 9-21 21-21h333c12 0 21 10 21 21v209c0 11-9 20-21 20M583-25H292v167h291zm396 208H688c-12 0-21-9-21-20V-46c0-11 9-21 21-21h291c12 0 21 10 21 21v209c0 11-9 20-21 20M958-25H708v167h250z" horiz-adv-x="1000"/><glyph glyph-name="gallery-masonry" unicode="" d="M292 746H42c-12 0-21-9-21-21V475c0-11 9-21 21-21h250c11 0 21 10 21 21v250c0 12-10 21-21 21m-21-250H63v208h208zm354 250H375c-11 0-21-9-21-21V308c0-11 10-20 21-20h250c12 0 21 9 21 20v417c0 12-9 21-21 21m-21-417H396v375h208zm354 417H708c-11 0-20-9-20-21V392c0-12 9-21 20-21h250c12 0 21 9 21 21v333c0 12-9 21-21 21m-20-333H729v291h209zm-646 0H42c-12 0-21-10-21-21V142c0-12 9-21 21-21h250c11 0 21 9 21 21v250c0 11-10 21-21 21m-21-250H63v208h208zm354 83H375c-11 0-21-9-21-21V-25c0-12 10-21 21-21h250c12 0 21 9 21 21v250c0 12-9 21-21 21M604-4H396v208h208zm354 333H708c-11 0-20-9-20-21V58c0-11 9-20 20-20h250c12 0 21 9 21 20v250c0 12-9 21-21 21M938 79H729v209h209z" horiz-adv-x="1000"/><glyph glyph-name="icon-box" unicode="" d="M854-108c13 0 21-9 21-21 0-9-8-17-17-21H146c-13 0-21 8-21 21 0 8 8 16 17 21zm0 104c13 0 21-9 21-21s-8-21-21-21H146c-13 0-21 8-21 21s8 21 21 21zM688 142c12 0 20-9 20-21s-8-21-20-21H313c-13 0-21 8-21 21s8 21 21 21zM500 850c171 0 313-142 313-312 0-171-142-313-313-313S188 367 188 538c0 170 141 312 312 312m0-42c-150 0-271-120-271-270s121-271 271-271 271 121 271 271-121 270-271 270m0-83c8 0 17-4 17-12l46-88 100-12c8 0 12-9 16-13 4-8 0-17-4-21l-71-71 17-100c0-8 0-16-8-20-9-5-17-5-21 0l-92 41-87-46c-9-4-17-4-21 0-9 5-9 13-9 21l17 100-75 71c-4 4-4 13-4 21 4 8 8 12 17 12l100 13 45 87c0 13 9 17 17 17m0-67-29-62c-4-4-8-8-17-13l-66-8 50-46c4-4 8-12 4-16l-13-67 63 33c4 4 12 4 21 0l62-33-12 67c0 8 0 12 4 16l50 46-67 8c-8 0-12 5-17 13z" horiz-adv-x="1000"/><glyph glyph-name="image-before-after" unicode="" d="M229 392c58 0 104 46 104 104s-46 104-104 104-104-47-104-104 47-104 104-104m0 166c35 0 63-28 63-62s-28-63-63-63-62 28-62 63 28 62 62 62m750 167H500v83h21c11 0 21 10 21 21s-10 21-21 21h-83c-12 0-21-9-21-21s9-21 21-21h20v-83H21c-12 0-21-9-21-21V-4c0-12 9-21 21-21h437v-83h-20c-12 0-21-10-21-21s9-21 21-21h83c11 0 21 9 21 21s-10 21-21 21h-21v83h479c12 0 21 9 21 21v708c0 12-9 21-21 21m-521-42V398L331 197 203 343c-4 5-11 7-18 7-6-1-12-5-16-10L42 116v567zM42 17v15l149 262 127-145c4-5 11-8 17-7 7 0 12 4 16 9l107 169V17zm916 0H500v666h458z" horiz-adv-x="1000"/><glyph glyph-name="image-box" unicode="" d="M875 829c0 12-9 21-21 21H146c-12 0-21-9-21-21V371c0-3 1-5 2-8v-1c1-2 2-4 4-6 4-4 10-6 15-6h708c5 0 9 2 12 4 0 0 1 0 1 1h1c1 1 2 3 3 4s1 2 2 3c0 1 1 2 1 4 0 1 1 2 1 4zm-42-21V431L641 675c-3 5-9 8-15 8-7 1-12-2-16-7L455 504l-110 70c-9 5-19 4-26-3L167 421v387zm-22-416H197l139 138 111-71c9-5 20-4 27 4l150 167zm-40-125H229c-11 0-21-10-21-21s10-21 21-21h542c11 0 21 9 21 21s-10 21-21 21m0-125H229c-11 0-21-10-21-21s10-21 21-21h542c11 0 21 9 21 21s-10 21-21 21m0-125H229c-11 0-21-10-21-21s10-21 21-21h542c11 0 21 9 21 21s-10 21-21 21m0-125H229c-11 0-21-10-21-21s10-21 21-21h542c11 0 21 9 21 21s-10 21-21 21M333 600c46 0 84 37 84 83s-38 84-84 84-83-38-83-84 37-83 83-83m0 125c23 0 42-19 42-42s-19-41-42-41-41 18-41 41 18 42 41 42" horiz-adv-x="1000"/><glyph glyph-name="image-hotspot" unicode="" d="M229 308c58 0 104 47 104 105s-46 104-104 104-104-47-104-104 47-105 104-105m0 167c35 0 63-28 63-62s-28-63-63-63-62 28-62 63 28 62 62 62m750 167H832c1 7 1 14 1 21 0 80-65 145-145 145s-146-65-146-145c0-7 0-14 1-21H21c-12 0-21-10-21-21V-88c0-11 9-20 21-20h958c12 0 21 9 21 20v709c0 11-9 21-21 21M688 767c57 0 104-47 104-104 0-75-71-199-104-253-34 54-105 178-105 253 0 57 47 104 105 104M552 600c29-106 114-234 118-241 4-5 11-9 18-9s13 4 17 9c4 7 89 135 118 241h135V53L787 259c-8 10-24 10-32 0l-85-102-131 224c-4 7-10 11-18 11-6-1-14-4-18-10L331 114 203 260c-4 5-11 7-18 7-6-1-12-5-16-11L42 33v567zM42-67v16l149 261L318 65c4-4 10-7 17-7 6 1 12 4 16 10l169 263 129-221c3-6 9-9 16-10 7 0 13 2 18 8l88 105L958-12v-55zm708 730c0 34-28 62-62 62s-63-28-63-62 28-63 63-63 62 28 62 63m-83 0c0 11 9 20 21 20s20-9 20-20-9-21-20-21-21 9-21 21" horiz-adv-x="1000"/><glyph glyph-name="image-rollover" unicode="" d="M125 621c0-58 47-104 104-104s104 46 104 104-46 104-104 104-104-47-104-104m167 0c0-35-28-63-63-63s-62 28-62 63 28 62 62 62 63-28 63-62m687 229H21c-12 0-21-9-21-21V121c0-12 9-21 21-21h458c12 0 21 9 21 21s-9 21-21 21H42v15l149 262 127-145c4-5 11-8 17-7 7 0 13 4 16 10l104 166c6 10 3 23-6 29-10 6-23 3-29-7l-89-143-128 146c-4 5-11 8-18 7-6-1-12-5-16-10L42 241v567h916V246c0-12 10-21 21-21s21 9 21 21v583c0 12-9 21-21 21M577 552c-6 6-15 8-22 5-8-3-13-11-13-19V-40c0-7 4-15 11-18 8-4 16-3 22 2l106 83 92-166c4-7 11-11 19-11 3 0 6 1 9 2l125 63c5 2 9 7 11 12 1 6 1 11-2 16l-87 157h131c9 0 16 5 19 13 4 8 2 17-4 23zm236-410c-8 0-15-4-18-11-4-6-4-14-1-20l94-169-88-44-94 170c-3 6-8 10-14 11h-4c-5 0-10-1-13-4L583 3v484l346-345z" horiz-adv-x="1000"/><glyph glyph-name="info-box" unicode="" d="M854 850H146c-12 0-21-9-21-21v-958c0-12 9-21 21-21h708c12 0 21 9 21 21v958c0 12-9 21-21 21m-21-42V431L641 675c-3 5-9 8-15 8-6 1-12-2-16-7L455 504l-110 70c-9 5-19 4-26-3L167 421v387zm-22-416H197l139 138 111-71c9-5 20-4 27 4l150 167zM167-108v458h666v-458zm562 375H271c-12 0-21-10-21-21s9-21 21-21h458c12 0 21 9 21 21s-9 21-21 21m-83-167H354c-11 0-21-9-21-21V-4c0-12 10-21 21-21h292c11 0 21 9 21 21v83c0 12-10 21-21 21m-21-83H375v41h250zM333 600c46 0 84 37 84 83s-38 84-84 84-83-38-83-84 37-83 83-83m0 125c23 0 42-19 42-42s-19-41-42-41-41 18-41 41 18 42 41 42" horiz-adv-x="1000"/><glyph glyph-name="inner-section" unicode="" d="M979 850H21c-12 0-21-9-21-21v-958c0-12 9-21 21-21h958c12 0 21 9 21 21v958c0 12-9 21-21 21M458 350h500V142H458zm500 42H708v416h250zM667 808V392H42v416zM42 350h375v-458H42zm416-458v208h500v-208z" horiz-adv-x="1000"/><glyph glyph-name="mailchimp" unicode="" d="M917 175v21c8 10 21 28 21 50 0 31-63 96-105 118v90c0 35-18 80-42 115 22 19 84 80 84 135 0 87-64 104-167 104-25 0-57-7-94-20-16 20-54 62-93 62-46 0-198-44-307-152C109 593 42 459 42 413c0-35 35-70 56-89-9-17-15-36-15-57 0-71 60-129 131-125 57-175 200-292 359-292 96 0 188 44 258 118 1 2 3 3 4 5 25 27 47 59 66 94 21 7 57 23 57 54 0 26-25 45-41 54m-21 71c0-9-7-18-12-23-24-8-135-40-196-40-12 0-23 1-33 1-46 1-80 1-99-18-10-9-14-21-14-39-1-15-1-38 19-58 22-23 63-33 128-33 69 0 120 7 154 14-12-17-25-33-38-48-16-7-74-27-159-27-92 0-167 91-167 167 0 64 81 101 90 105 28 2 66 18 109 38 46 20 97 43 132 44 27-10 82-68 86-83M792 454v-86c-8-1-15-2-22-4 0 2 1 5 1 7v21c0 11-9 21-21 21s-21-10-21-21v-21c0-7 4-13 9-16-25-9-51-21-77-32-9-4-18-9-27-12 7 3 12 10 12 18v21c0 12-9 21-21 21s-21-9-21-21v-21c0-11 10-21 21-21 3 0 5 1 7 2-27-12-51-21-67-22-17 7-86 36-86 83 0 31 8 83 63 83 23 0 46-5 68-11 19-5 38-10 57-10 27 0 52 18 69 31 6 5 14 10 14 11h6c9 0 25 1 31-5 3-3 5-8 5-16m41 250c0-31-40-77-69-103-9 8-18 15-27 18-43 19-270 94-484-236-10 4-21 6-32 8 119 230 382 376 487 376 125 0 125-31 125-63M83 413c0 27 57 151 161 256 97 96 239 139 277 139 14 0 36-18 52-36-137-62-313-197-401-386-19-6-35-15-49-28-19 17-40 41-40 55m172-262c5 2 11 5 16 8 10 6 13 19 8 28-6 10-19 14-29 8q-19.5-12-42-12c-46 0-83 38-83 84s37 83 83 83q22.5 0 42-12c10-5 22-2 28 7 200 320 404 253 443 236 16-7 37-34 52-65-7 1-13 1-18 1h-5c-13 0-24-9-39-19-13-10-30-23-44-23s-30 4-47 9c-23 5-49 12-78 12-51 0-104-33-104-125 0-52 44-87 78-106-34-22-78-63-78-123 0-97 91-209 208-209 33 0 61 3 86 7-49-31-103-48-159-48-140 0-266 103-318 259m626-46-1-1h-2c-1-1-62-27-189-27-65 0-89 12-99 21-6 7-7 15-7 28v4c0 3 1 5 2 6 7 7 40 7 69 6h34c55 0 143 22 187 34v-13c0-9 5-16 13-20 15-6 28-18 29-20-3-5-20-14-36-18" horiz-adv-x="1000"/><glyph glyph-name="menu-card" unicode="" d="M750 725h-62v104c0 7-4 13-9 17s-12 5-18 3L244 724h-1c-1-1-3-2-4-2-1-1-2-2-3-2-1-1-2-3-2-4l-3-3c0-1 0-2-1-4 0-1 0-2-1-4v-834c0-12 10-21 21-21h500c12 0 21 9 21 21v833c0 12-9 21-21 21m-104 0H392l254 76zm83-833H271v791h458zM500 308c-11 0-21-9-21-20v-42c0-36-10-51-21-57v99c0 11-9 20-20 20s-21-9-21-20v-99c-11 6-21 21-21 57v42c0 11-9 20-21 20s-21-9-21-20v-42c0-56 23-92 63-102V-4c0-12 9-21 21-21s20 9 20 21v148c40 10 63 46 63 102v42c0 11-9 20-21 20m125 0c-26 0-50-23-69-70-13-32-22-72-22-98 0-37 22-40 29-40h41V-4c0-12 10-21 21-21s21 9 21 21v292c0 11-9 20-21 20m-21-166h-28c0 21 11 68 28 100zm21 333H375c-11 0-21-9-21-21s10-21 21-21h250c12 0 21 10 21 21s-9 21-21 21" horiz-adv-x="1000"/><glyph glyph-name="navigation-horizontal" unicode="" d="M125 454c-57 0-104-47-104-104s47-104 104-104 104 47 104 104-46 104-104 104m0-166c-34 0-62 28-62 62s28 63 62 63 63-28 63-63-28-62-63-62m375 166c-57 0-104-47-104-104s47-104 104-104 104 47 104 104-46 104-104 104m0-166c-34 0-62 28-62 62s28 63 62 63 63-28 63-63-28-62-63-62m375 166c-57 0-104-47-104-104s47-104 104-104 104 47 104 104-46 104-104 104m0-166c-34 0-62 28-62 62s28 63 62 63 63-28 63-63-28-62-63-62" horiz-adv-x="1000"/><glyph glyph-name="nav-menu" unicode="" d="M958 683H42c-12 0-21-9-21-20V538c0-12 9-21 21-21h271V38c0-12 9-21 20-21h417c12 0 21 9 21 21v479h187c12 0 21 9 21 21v125c0 11-9 20-21 20M646 558H354v84h292zM63 642h250v-84H63zM729 58H354v459h375zm209 500H688v84h250zM417 433c-12 0-21-9-21-20s9-21 21-21h250c11 0 21 9 21 21s-10 20-21 20zm250-125H417c-12 0-21-9-21-20s9-21 21-21h250c11 0 21 9 21 21s-10 20-21 20m0-125H417c-12 0-21-9-21-20s9-21 21-21h250c11 0 21 9 21 21s-10 20-21 20" horiz-adv-x="1000"/><glyph glyph-name="navigation-vertical" unicode="" d="M500 621c58 0 104 47 104 104s-46 104-104 104-104-47-104-104 47-104 104-104m0 167c35 0 63-28 63-63s-28-62-63-62-62 28-62 62 28 63 62 63m0-334c-57 0-104-47-104-104s47-104 104-104 104 47 104 104-46 104-104 104m0-166c-34 0-62 28-62 62s28 63 62 63 63-28 63-63-28-62-63-62m0-209c-57 0-104-47-104-104s47-104 104-104S604-82 604-25 558 79 500 79m0-167c-34 0-62 28-62 63s28 63 62 63 63-28 63-63-28-63-63-63" horiz-adv-x="1000"/><glyph glyph-name="number-field" unicode="" d="M938 663H63c-35 0-63-28-63-63V100c0-34 28-62 63-62h875c34 0 62 28 62 62v500c0 35-28 63-62 63m20-563c0-11-9-21-20-21H63c-12 0-21 10-21 21v500c0 12 9 21 21 21h875c11 0 20-9 20-21zM235 537c-8 2-18-1-23-9l-83-125c-7-9-4-22 5-29 10-6 23-3 29 6l45 68V183c0-11 10-20 21-20s21 9 21 20v334c0 9-6 17-15 20m203 1c-58 0-105-47-105-105 0-11 10-20 21-20s21 9 21 20c0 35 28 63 63 63s62-28 62-63v-12c0-14-5-28-14-39L338 196c-5-6-6-14-3-22 4-7 11-11 19-11h167c11 0 21 9 21 20s-10 21-21 21H398l121 152c15 18 23 41 23 65v12c0 58-47 105-104 105m395-105c0 58-46 105-104 105s-104-47-104-105c0-11 9-20 21-20s21 9 21 20c0 35 28 63 62 63s63-28 63-63-28-62-63-62c-11 0-21-9-21-21s10-21 21-21c35 0 63-28 63-62s-28-63-63-63-62 28-62 63c0 11-10 21-21 21s-21-10-21-21c0-58 47-104 104-104s104 46 104 104c0 34-16 64-41 83 25 19 41 49 41 83" horiz-adv-x="1000"/><glyph glyph-name="parallax" unicode="" d="M1000 350c0 7-4 14-10 18l-120 68 119 62c7 4 11 11 11 19s-4 15-11 18L510 785c-6 3-13 3-20 0L11 535c-7-3-11-10-11-18s4-15 11-19l119-62-119-68c-7-4-11-11-11-18 0-8 5-15 11-18l119-62-119-68c-7-4-11-11-11-19s5-15 11-18L490-85c3-2 7-3 10-3s7 1 10 3l479 250c7 3 11 10 11 18s-4 15-10 18l-120 69 119 62c7 3 11 10 11 18M500 743l434-226-434-227L66 517zm436-559L500-43 64 184l110 63L490 82c3-2 7-3 10-3s7 1 10 3l316 165zm-436-60L64 351l110 62 316-165c3-1 7-2 10-2s7 1 10 2l316 165 110-62z" horiz-adv-x="1000"/><glyph glyph-name="php7" unicode="" d="M170 454H83c-9 0-18-6-20-16L22 272s-1 0-1-1L1 188c-3-11 4-22 15-25h5c9 0 18 6 20 15l17 68h85c48 0 90 32 101 79l7 26c6 25 1 51-15 71-16 21-40 32-66 32m40-93-6-26c-7-28-32-47-61-47H68l32 125h70c13 0 25-6 33-16 8-11 11-24 7-36m460 93h-87c-9 0-18-6-20-16l-41-166s-1 0-1-1l-20-83c-3-11 4-22 15-25h5c9 0 18 6 20 15l17 68h85c48 0 90 32 101 79l7 26c6 25 1 51-15 71-16 21-40 32-66 32m40-93-6-26c-7-28-32-47-61-47h-75l32 125h70c13 0 25-6 33-16 8-11 11-24 7-36m-224 61c-16 21-40 32-66 32h-60l14 58c3 11-4 22-15 25s-22-4-25-15l-62-250c-3-11 3-23 15-25 1-1 3-1 5-1 9 0 18 6 20 16l38 151h70c13 0 25-6 33-16 8-11 11-24 7-36l-22-89c-3-11 4-23 15-25 2-1 4-1 5-1 10 0 18 6 21 16l22 89c6 25 1 51-15 71m512 105c-4 6-11 11-19 11H813c-12 0-21-10-21-21s9-21 21-21h127L795 278c-6-9-4-22 6-29q6-3 12-3c6 0 13 3 17 9l167 250c4 7 4 15 1 22" horiz-adv-x="1000"/><glyph glyph-name="post-list" unicode="" d="M271 829H21c-12 0-21-9-21-21V558c0-11 9-20 21-20h250c11 0 21 9 21 20v250c0 12-10 21-21 21m-21-250H42v209h208zm146 84h583c12 0 21 9 21 20s-9 21-21 21H396c-12 0-21-9-21-21s9-20 21-20m0 83h250c11 0 21 9 21 21s-10 21-21 21H396c-12 0-21-10-21-21s9-21 21-21m583-125H396c-12 0-21-9-21-21s9-21 21-21h583c12 0 21 10 21 21s-9 21-21 21M271 496H21c-12 0-21-9-21-21V225c0-11 9-21 21-21h250c11 0 21 10 21 21v250c0 12-10 21-21 21m-21-250H42v208h208zm729 125H396c-12 0-21-9-21-21s9-21 21-21h583c12 0 21 10 21 21s-9 21-21 21m-583 42h250c11 0 21 9 21 20s-10 21-21 21H396c-12 0-21-9-21-21s9-20 21-20m583-125H396c-12 0-21-10-21-21s9-21 21-21h583c12 0 21 9 21 21s-9 21-21 21M271 163H21c-12 0-21-10-21-21v-250c0-12 9-21 21-21h250c11 0 21 9 21 21v250c0 11-10 21-21 21M250-88H42v209h208zM979 38H396c-12 0-21-10-21-21s9-21 21-21h583c12 0 21 9 21 21s-9 21-21 21M396 79h250c11 0 21 10 21 21s-10 21-21 21H396c-12 0-21-9-21-21s9-21 21-21M979-46H396c-12 0-21-9-21-21s9-21 21-21h583c12 0 21 10 21 21s-9 21-21 21" horiz-adv-x="1000"/><glyph glyph-name="post-slider" unicode="" d="M813 621H188c-12 0-21-9-21-21V100c0-11 9-21 21-21h625c11 0 20 10 20 21v500c0 12-9 21-20 21m-21-500H208v458h584zm-521 42h167c11 0 20 9 20 20s-9 21-20 21H271c-12 0-21-9-21-21 0-11 9-20 21-20m0 83h458c12 0 21 9 21 21s-9 21-21 21H271c-12 0-21-10-21-21s9-21 21-21m0 83h458c12 0 21 10 21 21s-9 21-21 21H271c-12 0-21-9-21-21s9-21 21-21M119 448c-8 8-21 8-29 0L6 365c-8-8-8-22 0-30l84-83c4-4 9-6 14-6s11 2 15 6c8 8 8 21 0 29l-69 69 69 69c8 8 8 21 0 29m875-83-83 83c-8 8-22 8-30 0s-8-21 0-29l69-69-69-69c-8-8-8-21 0-29 4-4 10-6 15-6s11 2 15 6l83 83c8 8 8 22 0 30" horiz-adv-x="1000"/><glyph glyph-name="post" unicode="" d="M998 467c1 3 2 5 2 8 0 76-43 156-131 244S701 850 625 850c-3 0-5-1-8-2-2 0-4-2-6-3 0-1 0-1-1-1-53-53-83-130-66-212L394 482c-57 34-185 44-263-34-69-69 30-202 131-306L6-115c-8-8-8-21 0-29 4-4 10-6 15-6s11 2 15 6l256 256C372 34 469-42 541-42c22 0 41 7 57 23 78 78 68 205 34 263l150 150c15-3 31-5 46-5 64 0 123 28 166 71 1 1 2 3 2 4 1 1 2 2 2 3m-42 32c-50 12-131 56-191 116S661 756 649 806c58-9 121-47 191-117 69-69 108-132 116-190M569 11c-36-36-137 20-263 145-125 126-181 227-145 263 65 65 168 51 208 29-10-32 5-85 75-154 57-57 102-78 135-78 7 0 13 1 19 3 22-40 36-143-29-208m21 250h-1c-8-9-49-5-116 62s-71 108-62 116l147 148c15-35 38-71 73-106s71-58 106-73zm71 250c-102 101-93 202-48 270 18-61 66-139 122-196 57-56 135-104 197-122-69-45-170-54-271 48" horiz-adv-x="1000"/><glyph glyph-name="posts-carousel" unicode="" d="M119 427c-8 8-21 8-29 0L6 344c-8-8-8-21 0-30l84-83c4-4 9-6 14-6s11 2 15 6c8 8 8 22 0 30l-69 68 69 69c8 8 8 21 0 29m875-83-83 83c-8 8-22 8-30 0s-8-21 0-29l69-69-69-68c-8-9-8-22 0-30 4-4 10-6 15-6s11 2 15 6l83 83c8 9 8 22 0 30M313 517H188c-12 0-21-10-21-21V371c0-12 9-21 21-21h125c11 0 20 9 20 21v125c0 11-9 21-20 21m-21-125h-84v83h84zm271 125H438c-12 0-21-10-21-21V371c0-12 9-21 21-21h125c11 0 20 9 20 21v125c0 11-9 21-20 21m-21-125h-84v83h84zm271 125H688c-12 0-21-10-21-21V371c0-12 9-21 21-21h125c11 0 20 9 20 21v125c0 11-9 21-20 21m-21-125h-84v83h84zm-479-84H188c-12 0-21-9-21-20s9-21 21-21h125c11 0 20 9 20 21s-9 20-20 20m250 0H438c-12 0-21-9-21-20s9-21 21-21h125c11 0 20 9 20 21s-9 20-20 20m250 0H688c-12 0-21-9-21-20s9-21 21-21h125c11 0 20 9 20 21s-9 20-20 20m-542-83h-83c-12 0-21-9-21-21s9-21 21-21h83c11 0 21 10 21 21s-10 21-21 21m250 0h-83c-12 0-21-9-21-21s9-21 21-21h83c11 0 21 10 21 21s-10 21-21 21m250 0h-83c-12 0-21-9-21-21s9-21 21-21h83c11 0 21 10 21 21s-10 21-21 21" horiz-adv-x="1000"/><glyph glyph-name="posts-grid" unicode="" d="M292 767H42c-12 0-21-10-21-21V496c0-12 9-21 21-21h250c11 0 21 9 21 21v250c0 11-10 21-21 21m-21-250H63v208h208zm-21-125c12 0 21 9 21 21s-9 20-21 20H83c-11 0-20-9-20-20s9-21 20-21zm375 375H375c-11 0-21-10-21-21V496c0-12 10-21 21-21h250c12 0 21 9 21 21v250c0 11-9 21-21 21m-21-250H396v208h208zm-21-125c12 0 21 9 21 21s-9 20-21 20H417c-12 0-21-9-21-20s9-21 21-21zm375 375H708c-11 0-20-10-20-21V496c0-12 9-21 20-21h250c12 0 21 9 21 21v250c0 11-9 21-21 21m-20-250H729v208h209zm-21-125c11 0 21 9 21 21s-10 20-21 20H750c-11 0-21-9-21-20s10-21 21-21zm-625-84H42c-12 0-21-9-21-20V38c0-12 9-21 21-21h250c11 0 21 9 21 21v250c0 11-10 20-21 20M271 58H63v209h208zm-21-83H83c-11 0-20-9-20-21s9-21 20-21h167c12 0 21 10 21 21s-9 21-21 21m375 333H375c-11 0-21-9-21-20V38c0-12 10-21 21-21h250c12 0 21 9 21 21v250c0 11-9 20-21 20M604 58H396v209h208zm-21-83H417c-12 0-21-9-21-21s9-21 21-21h166c12 0 21 10 21 21s-9 21-21 21m375 333H708c-11 0-20-9-20-20V38c0-12 9-21 20-21h250c12 0 21 9 21 21v250c0 11-9 20-21 20M938 58H729v209h209zm-21-83H750c-11 0-21-9-21-21s10-21 21-21h167c11 0 21 10 21 21s-10 21-21 21" horiz-adv-x="1000"/><glyph glyph-name="posts-group" unicode="" d="M979 767H729c-11 0-21-10-21-21V496c0-12 10-21 21-21h250c12 0 21 9 21 21v250c0 11-9 21-21 21m-21-250H750v208h208zm-20-125c11 0 20 9 20 21s-9 20-20 20H771c-12 0-21-9-21-20s9-21 21-21zm41-84H729c-11 0-21-9-21-20V38c0-12 10-21 21-21h250c12 0 21 9 21 21v250c0 11-9 20-21 20M958 58H750v209h208zm-20-83H771c-12 0-21-9-21-21s9-21 21-21h167c11 0 20 10 20 21s-9 21-20 21M646 767H21c-12 0-21-10-21-21V-46c0-11 9-21 21-21h625c11 0 21 10 21 21v792c0 11-10 21-21 21M625-25H42v750h583zM146 58h250c11 0 21 10 21 21s-10 21-21 21H146c-12 0-21-9-21-21s9-21 21-21m0 125h375c11 0 21 10 21 21s-10 21-21 21H146c-12 0-21-9-21-21s9-21 21-21m0 125h375c11 0 21 10 21 21s-10 21-21 21H146c-12 0-21-9-21-21s9-21 21-21" horiz-adv-x="1000"/><glyph glyph-name="posts-justified" unicode="" d="M21 600h208c12 0 21 9 21 21v208c0 12-9 21-21 21H21c-12 0-21-9-21-21V621c0-12 9-21 21-21m21 208h166V642H42zm271-208h375c11 0 20 9 20 21v208c0 12-9 21-20 21H313c-12 0-21-9-21-21V621c0-12 9-21 21-21m20 208h334V642H333zm646 42H771c-12 0-21-9-21-21V621c0-12 9-21 21-21h208c12 0 21 9 21 21v208c0 12-9 21-21 21m-21-208H792v166h166zM63 558c-12 0-21-9-21-20s9-21 21-21h125c11 0 20 9 20 21s-9 20-20 20zm520-20c0 11-9 20-20 20H438c-12 0-21-9-21-20s9-21 21-21h125c11 0 20 9 20 21m355-21c11 0 20 9 20 21s-9 20-20 20H813c-12 0-21-9-21-20s9-21 21-21zM479 225h209c11 0 20 9 20 21v208c0 12-9 21-20 21H479c-11 0-21-9-21-21V246c0-12 10-21 21-21m21 208h167V267H500zM21 225h375c11 0 21 9 21 21v208c0 12-10 21-21 21H21c-12 0-21-9-21-21V246c0-12 9-21 21-21m21 208h333V267H42zm937 42H771c-12 0-21-9-21-21V246c0-12 9-21 21-21h208c12 0 21 9 21 21v208c0 12-9 21-21 21m-21-208H792v166h166zm-312-84H521c-12 0-21-9-21-20s9-21 21-21h125c11 0 21 9 21 21s-10 20-21 20m-500 0c-12 0-21-9-21-20s9-21 21-21h125c11 0 21 9 21 21s-10 20-21 20zm792-41c11 0 20 9 20 21s-9 20-20 20H813c-12 0-21-9-21-20s9-21 21-21zm-750-42H21C9 100 0 91 0 79v-208c0-12 9-21 21-21h167c11 0 20 9 20 21V79c0 12-9 21-20 21m-21-208H42V58h125zm437 208H271c-12 0-21-9-21-21v-208c0-12 9-21 21-21h333c12 0 21 9 21 21V79c0 12-9 21-21 21m-21-208H292V58h291zm396 208H688c-12 0-21-9-21-21v-208c0-12 9-21 21-21h291c12 0 21 9 21 21V79c0 12-9 21-21 21m-21-208H708V58h250z" horiz-adv-x="1000"/><glyph glyph-name="posts-masonry" unicode="" d="M292 850H42c-12 0-21-9-21-21V579c0-11 9-21 21-21h250c11 0 21 10 21 21v250c0 12-10 21-21 21m-21-250H63v208h208zm-21-125c12 0 21 9 21 21s-9 21-21 21H83c-11 0-20-10-20-21s9-21 20-21zm375 375H375c-11 0-21-9-21-21V413c0-12 10-21 21-21h250c12 0 21 9 21 21v416c0 12-9 21-21 21m-21-417H396v375h208zm-21-125c12 0 21 10 21 21s-9 21-21 21H417c-12 0-21-9-21-21s9-21 21-21zm375 542H708c-11 0-20-9-20-21V496c0-12 9-21 20-21h250c12 0 21 9 21 21v333c0 12-9 21-21 21m-20-333H729v291h209zm-21-125c11 0 21 9 21 21s-10 20-21 20H750c-11 0-21-9-21-20s10-21 21-21zm-625 0H42c-12 0-21-10-21-21V121c0-12 9-21 21-21h250c11 0 21 9 21 21v250c0 11-10 21-21 21m-21-250H63v208h208zm-21-84H83c-11 0-20-9-20-20s9-21 20-21h167c12 0 21 9 21 21s-9 20-21 20m375 167H375c-11 0-21-9-21-21V-46c0-11 10-21 21-21h250c12 0 21 10 21 21v250c0 12-9 21-21 21M604-25H396v208h208zm-21-83H417c-12 0-21-10-21-21s9-21 21-21h166c12 0 21 9 21 21s-9 21-21 21m375 416H708c-11 0-20-9-20-20V38c0-12 9-21 20-21h250c12 0 21 9 21 21v250c0 11-9 20-21 20M938 58H729v209h209zm-21-83H750c-11 0-21-9-21-21s10-21 21-21h167c11 0 21 10 21 21s-10 21-21 21" horiz-adv-x="1000"/><glyph glyph-name="posts-ticker" unicode="" d="M471 788c-41 0-75-18-97-51-2-3-4-7-6-10-1-1-2-2-2-3l-5-9c0-1 0-2-1-3L234 448 63 339C23 314 0 271 0 225v-7c0-42 19-80 51-106 24-20 54-29 84-29 21 0 41 5 60 14l83-15 40-81c14-28 39-48 69-57l107-31c2 0 4-1 6-1 4 0 8 1 11 3 5 4 8 8 9 14l4 20c11 55-19 108-71 126l-46 125 266-36h2l10-1h10c42 0 75 17 98 50 41 59 39 160-3 270-65 171-205 305-319 305M77 145c-22 17-35 44-35 73v7c0 32 16 61 43 79l145 92c5-67 25-136 98-174l-146-85c-33-19-75-16-105 8M433 38c35-9 57-43 51-78l-86 24c-19 5-34 18-43 36l-45 89c-3 6-8 10-14 12l-44 8 112 66 54-144c2-6 8-11 15-13m-53 207c-94 28-109 104-109 184l75 157c4-37 14-77 30-118 39-102 105-190 175-245zm379-8c-15-22-36-33-64-33-5 0-10 1-16 2h-3c-91 15-207 136-261 277-32 83-38 161-17 211v1c3 7 6 13 10 19 15 21 36 32 63 32 94 0 222-128 280-278 37-96 40-184 8-231M572 575c-32 9-66 4-95-14-9-6-13-18-7-28s19-13 29-7c19 11 41 14 63 9s40-19 51-38c12-19 15-41 10-63-6-22-19-40-38-51-10-6-13-19-8-29 4-6 11-10 18-10 4 0 8 1 11 3 29 17 49 44 57 77 8 32 3 66-14 94-17 29-45 49-77 57m221-3c3-8 11-14 20-14 2 0 4 1 7 2l167 62c10 4 16 16 12 27s-16 16-27 12l-167-62c-11-4-16-16-12-27m-22 91c5 0 11 2 15 6l83 83c8 8 8 21 0 29s-21 9-30 0l-83-83c-8-8-8-21 0-29 4-4 10-6 15-6m208-167H854c-11 0-21-9-21-21s10-21 21-21h125c12 0 21 10 21 21s-9 21-21 21" horiz-adv-x="1000"/><glyph glyph-name="price-list" unicode="" d="M646-25H125v583h229c12 0 21 10 21 21v229h417V246c0-12 9-21 21-21s20 9 20 21v583c0 12-9 21-20 21H354c-3 0-5-1-8-2-1 0-1-1-2-1-2-1-3-2-5-3L89 594c0-1-1-2-2-3l-2-4c-1-2-2-5-2-8V-46c0-11 10-21 21-21h542c11 0 21 10 21 21s-10 21-21 21M155 600l178 179V600zM917-35c0 47-51 63-84 69v64c24-5 41-17 42-28s12-19 23-19c11 2 20 12 19 23-4 34-38 60-84 66v23c0 11-9 20-20 20s-21-9-21-20v-23c-48-6-84-35-84-71 0-48 51-63 84-70v-63c-24 4-41 16-42 27-1 12-12 20-23 19s-20-11-18-23c3-33 37-60 83-66v-22c0-12 9-21 21-21s20 9 20 21v22c49 7 84 36 84 72M750 69c0 11 17 24 42 29V42c-34 8-42 19-42 27m83-134v57c34-8 42-19 42-27 0-12-17-25-42-30M271 475c-35 0-63-28-63-62s28-63 63-63 62 28 62 63-28 62-62 62m0-83c-12 0-21 9-21 21s9 20 21 20 21-9 21-20-10-21-21-21m0-84c-35 0-63-28-63-62s28-63 63-63 62 28 62 63-28 62-62 62m0-83c-12 0-21 9-21 21s9 21 21 21 21-10 21-21-10-21-21-21m0-83c-35 0-63-28-63-63s28-62 63-62 62 28 62 62-28 63-62 63m0-84c-12 0-21 10-21 21s9 21 21 21 21-9 21-21-10-21-21-21m167 375c-12 0-21-9-21-20s9-21 21-21h250c11 0 20 9 20 21s-9 20-20 20zm250-166H438c-12 0-21-10-21-21s9-21 21-21h250c11 0 20 9 20 21s-9 21-20 21m-42-167H438c-12 0-21-9-21-21s9-21 21-21h208c11 0 21 10 21 21s-10 21-21 21" horiz-adv-x="1000"/><glyph glyph-name="price-table" unicode="" d="M958 663H771v62c0 12-9 21-21 21H250c-11 0-21-9-21-21v-62H42c-12 0-21-10-21-21V58c0-11 9-20 21-20h187v-63c0-12 10-21 21-21h500c12 0 21 9 21 21v63h187c12 0 21 9 21 20v584c0 11-9 21-21 21m-20-42v-83H771v83zm-667 83h458V579H271zm-42-83v-83H63v83zM63 79v417h166V79zM729-4H271v542h458zm42 83v417h167V79zM521 283v85c23-5 40-20 42-37 1-11 11-19 22-19 12 1 20 12 19 23-3 39-38 69-83 76v22c0 12-9 21-21 21s-21-9-21-21v-22c-47-8-83-42-83-82 0-39 27-65 83-79v-85c-23 6-40 20-42 37 0 11-12 20-22 19-11-1-20-11-19-23 3-38 38-68 83-75v-23c0-11 10-21 21-21s21 10 21 21v23c47 7 83 41 83 81 0 39-27 66-83 79m-83 46c0 18 17 33 41 39v-75c-28 8-41 20-41 36m83-164v75c28-8 42-19 42-36s-18-33-42-39" horiz-adv-x="1000"/><glyph glyph-name="radio" unicode="" d="M146 829C65 829 0 764 0 683s65-145 146-145 146 65 146 145-66 146-146 146m0-250c-58 0-104 47-104 104s46 105 104 105 104-47 104-105-47-104-104-104m0-83C65 496 0 430 0 350s65-146 146-146 146 66 146 146-66 146-146 146m0-250c-58 0-104 47-104 104s46 104 104 104 104-47 104-104-47-104-104-104m0-83C65 163 0 97 0 17s65-146 146-146S292-64 292 17s-66 146-146 146m0-251C88-88 42-41 42 17s46 104 104 104S250 74 250 17 203-88 146-88m250 751h583c12 0 21 9 21 20s-9 21-21 21H396c-12 0-21-9-21-21s9-20 21-20m583-292H396c-12 0-21-9-21-21s9-21 21-21h583c12 0 21 10 21 21s-9 21-21 21m0-333H396c-12 0-21-10-21-21s9-21 21-21h583c12 0 21 9 21 21s-9 21-21 21M146 413c-35 0-63-28-63-63s28-62 63-62 62 28 62 62-28 63-62 63m0-84c-12 0-21 10-21 21s9 21 21 21 21-9 21-21-10-21-21-21" horiz-adv-x="1000"/><glyph glyph-name="rtl" unicode="" d="M229 308c12 0 21 10 21 21v104h93l77-115c4-6 11-10 18-10 4 0 8 2 11 4 10 6 12 19 6 29l-66 99c40 14 69 52 69 98v41c0 58-46 104-104 104H229c-11 0-21-9-21-20V329c0-11 10-21 21-21m21 334h104c35 0 63-28 63-63v-41c0-35-28-63-63-63H250zm229 0h104V329c0-11 10-21 21-21s21 10 21 21v313h104c12 0 21 9 21 21s-9 20-21 20H479c-11 0-21-9-21-20s10-21 21-21m334-334h166c12 0 21 10 21 21s-9 21-21 21H833v313c0 11-9 20-20 20s-21-9-21-20V329c0-11 9-21 21-21m166-125H71l90 90c8 8 8 21 0 29s-22 8-30 0L6 177c-2-2-3-4-4-6-3-6-3-11 0-16 0-2 1-3 2-4s1-2 2-3L131 23c4-4 10-6 15-6s11 2 15 6c8 8 8 21 0 29l-90 90h908c12 0 21 9 21 21s-9 20-21 20" horiz-adv-x="1000"/><glyph glyph-name="scroll" unicode="" d="M583 850H417c-150 0-271-121-271-271V204c0-195 159-354 354-354S854 9 854 204v375c0 150-121 271-271 271m-83-167c12 0 21-9 21-20V538c0-12-9-21-21-21s-21 9-21 21v125c0 11 10 20 21 20m313-479c0-172-141-312-313-312S188 32 188 204v375c0 127 102 229 229 229h62v-87c-24-8-41-31-41-58V538c0-35 28-63 62-63s63 28 63 63v125c0 27-18 50-42 58v87h62c127 0 230-102 230-229z" horiz-adv-x="1000"/><glyph glyph-name="search" unicode="" d="M994-115 690 190c63 70 102 163 102 264 0 218-178 396-396 396S0 672 0 454 178 58 396 58c102 0 194 39 264 102l304-304q7.5-6 15-6c7.5 0 11 2 15 6 8 8 8 21 0 29M42 454c0 196 159 354 354 354s354-158 354-354-159-354-354-354S42 259 42 454" horiz-adv-x="1000"/><glyph glyph-name="select" unicode="" d="M938 663H63c-35 0-63-28-63-63V100c0-34 28-62 63-62h875c34 0 62 28 62 62v500c0 35-28 63-62 63m20-563c0-11-9-21-20-21H63c-12 0-21 10-21 21v500c0 12 9 21 21 21h875c11 0 20-9 20-21zM839 406 688 255 536 406c-9 9-22 9-30 0s-8-21 0-29l167-167q6-6 15-6c9 0 10 2 14 6l167 167c8 8 8 21 0 29-8 9-21 9-30 0" horiz-adv-x="1000"/><glyph glyph-name="share" unicode="" d="M833 183c-57 0-108-29-138-74L323 295c6 17 10 36 10 55s-4 38-10 55l372 186c30-45 81-74 138-74 92 0 167 74 167 166s-75 167-167 167-166-75-166-167c0-19 4-37 10-55L305 443c-30 44-81 74-138 74C75 517 0 442 0 350s75-167 167-167c57 0 108 30 138 75L677 72c-6-18-10-36-10-55 0-92 74-167 166-167s167 75 167 167-75 166-167 166m0 625c69 0 125-56 125-125s-56-125-125-125c-48 0-90 29-111 69v1c-8 17-14 35-14 55 0 69 56 125 125 125M167 225c-69 0-125 56-125 125s56 125 125 125c48 0 90-28 111-69 9-17 14-36 14-56s-5-38-14-55v-1c-21-41-63-69-111-69m666-333c-69 0-125 56-125 125 0 20 6 38 14 55v1c21 40 63 69 111 69 69 0 125-56 125-125s-56-125-125-125" horiz-adv-x="1000"/><glyph glyph-name="sidebar" unicode="" d="M979 850H21c-12 0-21-9-21-21v-958c0-12 9-21 21-21h958c12 0 21 9 21 21v958c0 12-9 21-21 21m-21-42V642H42v166zM42 600h541v-708H42zm583-708v708h333v-708zM854 17H729c-11 0-21-10-21-21s10-21 21-21h125c12 0 21 9 21 21s-9 21-21 21m0 125H729c-11 0-21-10-21-21s10-21 21-21h125c12 0 21 9 21 21s-9 21-21 21m0 125H729c-11 0-21-10-21-21s10-21 21-21h125c12 0 21 9 21 21s-9 21-21 21m0 125H729c-11 0-21-10-21-21s10-21 21-21h125c12 0 21 9 21 21s-9 21-21 21m0 125H729c-11 0-21-10-21-21s10-21 21-21h125c12 0 21 9 21 21s-9 21-21 21" horiz-adv-x="1000"/><glyph glyph-name="skill-bar" unicode="" d="M938 829H63c-35 0-63-28-63-62v-84c0-34 28-62 63-62h750c1 0 0 0 0 0h125c34 0 62 28 62 62v84c0 34-28 62-62 62M792 663h-96l96 95zm-155 0h-66l125 125h66zm-191 0 125 125h66L512 663zm-125 0 125 125h66L387 663zm-125 0 125 125h66L262 663zm-125 0 125 125h66L137 663zm-8 125h74l-95-96v75c0 11 9 21 21 21m895-105c0-11-9-20-20-20H833v125h105c11 0 20-10 20-21zm-20-104H63c-35 0-63-28-63-62v-84c0-34 28-62 63-62h500c1 0 0 0 0 0h375c34 0 62 28 62 62v84c0 34-28 62-62 62M542 413h-96l96 95zm-155 0h-66l125 125h66zm-191 0 125 125h66L262 413zm-125 0 125 125h66L137 413zm-8 125h74l-95-96v75c0 11 9 21 21 21m895-105c0-11-9-20-20-20H583v125h355c11 0 20-10 20-21zM938 79H63C28 79 0 51 0 17v-84c0-34 28-62 63-62h250c1 0 0 0 0 0h625c34 0 62 28 62 62v84c0 34-28 62-62 62M292-88h-96l96 96zm-155 0H71L196 38h66zM63 38h74L42-58v75c0 11 9 21 21 21M958-67c0-11-9-21-20-21H333V38h605c11 0 20-10 20-21zm-20 396H63c-35 0-63-28-63-62v-84c0-34 28-62 63-62h625c1 0 0 0 0 0h250c34 0 62 28 62 62v84c0 34-28 62-62 62M667 163h-96l96 95zm-155 0h-66l125 125h66zm-191 0 125 125h66L387 163zm-125 0 125 125h66L262 163zm-125 0 125 125h66L137 163zm-8 125h74l-95-96v75c0 11 9 21 21 21m895-105c0-11-9-20-20-20H708v125h230c11 0 20-10 20-21z" horiz-adv-x="1000"/><glyph glyph-name="slider-3d" unicode="" d="M792 621H208c-11 0-20-9-20-21V183c0-11 9-20 20-20h584c11 0 21 9 21 20v417c0 12-10 21-21 21m-21-417H229v375h542zM116 577l-84-42c-10-5-14-17-9-28 5-10 18-14 28-9l53 27V259l-53 26c-10 5-23 1-28-9s-1-23 9-28l84-42c3-1 6-2 9-2 4 0 8 1 11 3 6 4 10 11 10 18v333c0 8-4 14-10 18s-14 4-20 1m833-292-53-26v266l53-27c10-5 23-1 28 9 5 11 1 23-9 28l-84 42c-6 3-14 3-20-1s-10-10-10-18V225c0-7 4-14 10-18 3-2 7-3 11-3 3 0 6 1 9 2l84 42c10 5 14 18 9 28s-18 14-28 9" horiz-adv-x="1000"/><glyph glyph-name="slider-album" unicode="" d="M971 533c-5 4-11 5-18 4l-140-35v56c0 12-10 21-21 21H208c-11 0-20-9-20-21v-56L47 537c-6 1-13 0-18-4s-8-10-8-16V183c0-6 3-12 8-16 4-3 8-4 13-4h5l141 35v-56c0-12 9-21 20-21h584c11 0 21 9 21 21v56l140-35h5c5 0 10 1 13 4 5 4 8 10 8 16v334c0 6-3 12-8 16M63 210v280l125-31V241zm708-47H229v375h542zm167 47-125 31v218l125 31z" horiz-adv-x="1000"/><glyph glyph-name="slider-device" unicode="" d="M125 288c5 0 11 2 15 6 8 8 8 21 0 29l-69 69 69 68c8 8 8 22 0 30s-22 8-30 0l-83-84c-8-8-8-21 0-29l83-83c4-4 10-6 15-6m848 118-83 84c-8 8-22 8-30 0s-8-22 0-30l69-68-69-69c-8-8-8-21 0-29 4-4 10-6 15-6s11 2 15 6l83 83c8 8 8 21 0 29m-98-160h-62v354c0 35-28 63-63 63H250c-34 0-62-28-62-63V246h-63c-11 0-21-9-21-21v-42c0-34 28-62 63-62h666c35 0 63 28 63 62v42c0 12-9 21-21 21M229 600c0 12 10 21 21 21h500c12 0 21-9 21-21V246H229zm625-417c0-11-9-20-21-20H167c-12 0-21 9-21 20v21h708z" horiz-adv-x="1000"/><glyph glyph-name="slider-full-screen" unicode="" d="M958 704H42c-12 0-21-9-21-21V17C21 5 30-4 42-4h916c12 0 21 9 21 21v666c0 12-9 21-21 21M938 38H63v625h875zM194 252c4-4 9-6 14-6s11 2 15 6c8 8 8 21 0 29l-68 69 68 69c8 8 8 21 0 29s-21 8-29 0l-84-83c-8-8-8-22 0-30zm583 0q6-6 15-6c9 0 10 2 14 6l84 83c8 8 8 22 0 30l-84 83c-8 8-21 8-29 0s-8-21 0-29l69-69-69-69c-8-8-8-21 0-29m-460-80c0-1 1-2 2-3 0-1 1-1 2-2s3-2 4-3c3-1 6-1 8-1h84c11 0 21 9 21 20s-10 21-21 21h-33l68 69c8 8 8 21 0 29s-21 8-29 0l-69-68v33c0 11-9 21-21 21s-20-10-20-21v-84c0-2 0-5 1-8zm-4 345v-84c0-11 9-20 20-20s21 9 21 20v33l69-68q6-6 15-6c9 0 10 2 14 6 8 8 8 21 0 29l-68 69h33c11 0 21 9 21 21s-10 21-21 21h-84c-1 0-2-1-3-1-2 0-3 0-5-1s-4-3-6-5h-1c-1-2-3-4-4-6-1-3-1-6-1-8m250-125c5 0 10 2 14 6l69 68v-33c0-11 9-20 21-20 11 0 21 9 21 20v84c0 1-1 3-1 4-1 1-1 3-1 4-2 5-6 9-11 11-2 0-3 0-4 1-1 0-3 1-4 1h-84c-11 0-20-10-20-21s9-21 20-21h33l-68-69c-8-8-8-21 0-29q6-6 15-6m53-188h-33c-11 0-20-9-20-21 0-11 9-20 20-20h84c2 0 5 0 8 1 2 1 4 3 6 4v1c2 2 4 4 5 6s1 3 1 5c0 1 1 2 1 3v84c0 11-10 21-21 21s-21-10-21-21v-33l-69 68c-8 8-21 8-29 0s-8-21 0-29z" horiz-adv-x="1000"/><glyph glyph-name="slider-push" unicode="" d="M792 621H208c-11 0-20-9-20-21V183c0-11 9-20 20-20h584c11 0 21 9 21 20v417c0 12-10 21-21 21m-21-417H229v375h542zM125 621H42c-12 0-21-9-21-21s9-21 21-21h62V204H42c-12 0-21-9-21-21 0-11 9-20 21-20h83c12 0 21 9 21 20v417c0 12-9 21-21 21m833-417h-62v375h62c12 0 21 10 21 21s-9 21-21 21h-83c-11 0-21-9-21-21V183c0-11 10-20 21-20h83c12 0 21 9 21 20s-9 21-21 21" horiz-adv-x="1000"/><glyph glyph-name="slider-vertical" unicode="" d="M958 663H42c-12 0-21-10-21-21V58c0-11 9-20 21-20h916c12 0 21 9 21 20v584c0 11-9 21-21 21M938 79H63v542h875zM569-10l-69-69-69 69c-8 8-21 8-29 0s-8-22 0-30l83-83c4-4 10-6 15-6s11 2 15 6l83 83c8 8 8 22 0 30s-21 8-29 0M431 710l69 69 69-69c4-4 9-6 14-6s11 2 15 6c8 8 8 22 0 30l-83 83c-8 8-22 8-30 0l-83-83c-8-8-8-22 0-30s21-8 29 0" horiz-adv-x="1000"/><glyph glyph-name="slider-video" unicode="" d="M792 579H208c-11 0-20-9-20-21V142c0-12 9-21 20-21h584c11 0 21 9 21 21v416c0 12-10 21-21 21m-21-416H229v375h542zM140 448c-8 8-22 8-30 0l-83-83c-8-8-8-22 0-30l83-83c4-4 10-6 15-6s11 2 15 6c8 8 8 21 0 29l-69 69 69 69c8 8 8 21 0 29m833-83-83 83c-8 8-22 8-30 0s-8-21 0-29l69-69-69-69c-8-8-8-21 0-29 4-4 10-6 15-6s11 2 15 6l83 83c8 8 8 22 0 30M449 248c3-1 6-2 9-2q6 0 12 3l125 84c6 4 9 10 9 17s-3 14-9 17l-125 84c-7 4-15 4-21 1-7-4-11-11-11-19V267c0-8 4-15 11-19m30 146 67-44-67-44z" horiz-adv-x="1000"/><glyph glyph-name="slides" unicode="" d="M792 621H208c-11 0-20-9-20-21V183c0-11 9-20 20-20h584c11 0 21 9 21 20v417c0 12-10 21-21 21m-21-417H229v375h542zM140 490c-8 8-22 8-30 0l-83-84c-8-8-8-21 0-29l83-83c4-4 10-6 15-6s11 2 15 6c8 8 8 21 0 29l-69 69 69 68c8 8 8 22 0 30m833-84-83 84c-8 8-22 8-30 0s-8-22 0-30l69-68-69-69c-8-8-8-21 0-29 4-4 10-6 15-6s11 2 15 6l83 83c8 8 8 21 0 29" horiz-adv-x="1000"/><glyph glyph-name="social-icons" unicode="" d="m926 796-105 9c-47 4-95 4-142 0l-105-9c-42-4-74-38-74-80V526c0-42 32-77 74-80l105-10c24-2 47-3 71-3s47 1 71 3l105 10c42 3 74 38 74 80v190c0 42-32 76-74 80m32-270c0-20-15-37-35-39l-106-9c-44-4-90-4-134 0l-106 9c-20 2-35 19-35 39v190c0 20 15 37 35 39l106 9c22 2 45 3 67 3s45-1 67-3l106-9c20-2 35-19 35-39zM699 722c-6 4-15 4-21 1-7-4-11-11-11-19V538c0-8 4-15 11-19 3-1 6-2 10-2s8 1 11 3l125 84c6 3 9 10 9 17s-3 13-9 17zm9-146v89l67-44zM444 268c1 2 2 5 2 8 3 8-1 17-8 22s-16 5-23 1c-5-3-23-11-37-15-38 30-83 32-128 7-34-20-45-55-46-83-69 10-112 47-137 78-5 5-11 8-18 7-7 0-13-4-16-10-15-24-19-51-12-78 1-5 2-9 4-13 0-1-1-1-1-1-7-4-12-11-12-19 0-32 14-57 32-74l-1-1c-5-6-7-15-3-23 11-24 29-42 52-54-22-7-46-10-69-7C13 14 4 8 1-2c-3-9 1-20 10-24 48-27 98-41 146-40 50 0 98 14 141 43 75 50 122 138 118 218 12 9 28 24 39 41 5 8 4 19-2 26-3 3-6 5-9 6M275 11c-32-21-92-48-170-30 21 7 40 18 56 31 6 6 8 15 5 23s-10 13-19 14c-17 0-32 5-44 13 6 2 11 5 16 9 7 5 9 14 7 22s-10 14-18 15c-7 0-30 10-44 31 5 0 11 0 16 1 8 2 15 8 16 17 2 9-2 17-10 21-7 5-20 18-25 37-1 6-2 12-2 18 36-33 89-65 166-69 6-1 13 3 17 8s6 12 4 18c-3 11-2 49 25 64 33 19 61 16 87-8 3-3 7-4 11-5-1-3-1-6 0-9 1-6 5-11 9-14-3-4-5-10-4-15 8-69-33-147-99-192m121 797H63c-35 0-63-28-63-62V413c0-35 28-63 63-63h333c34 0 62 28 62 63v333c0 34-28 62-62 62m21-395c0-12-10-21-21-21H250v166h42c11 0 21 10 21 21s-10 21-21 21h-42c0 23 19 42 42 42h21c11 0 20 9 20 21s-9 20-20 20h-21c-46 0-84-37-84-83h-20c-12 0-21-9-21-21s9-21 21-21h20V392H63c-12 0-21 9-21 21v333c0 11 9 21 21 21h333c11 0 21-10 21-21zm437-21H646c-81 0-146-66-146-146V38c0-81 65-146 146-146h208c81 0 146 65 146 146v208c0 80-65 146-146 146M958 38c0-58-46-105-104-105H646c-58 0-104 47-104 105v208c0 57 46 104 104 104h208c58 0 104-47 104-104zM750 267c-69 0-125-56-125-125S681 17 750 17s125 56 125 125-56 125-125 125m0-209c-46 0-83 38-83 84s37 83 83 83 83-37 83-83-37-84-83-84" horiz-adv-x="1000"/><glyph glyph-name="spacer" unicode="" d="M42 663h916c12 0 21 9 21 20s-9 21-21 21H42c-12 0-21-9-21-21s9-20 21-20m583-250c8 0 15 4 19 11s2 16-2 22L517 613c-8 10-26 10-34 0L358 446c-4-6-5-15-2-22 4-7 11-11 19-11h104V288H375c-8 0-15-5-19-12-3-7-2-15 2-22L483 88c4-6 11-9 17-9s13 3 17 9l125 166c4 7 5 15 2 22-4 7-11 12-19 12H521v125zM500 135l-83 111h166zm0 430 83-111H417zM958 38H42c-12 0-21-10-21-21S30-4 42-4h916c12 0 21 9 21 21s-9 21-21 21" horiz-adv-x="1000"/><glyph glyph-name="table" unicode="" d="M979 725H21c-12 0-21-9-21-21V-4c0-12 9-21 21-21h958c12 0 21 9 21 21v708c0 12-9 21-21 21M377 183v125h248V183zm248-41V17H377v125zm0 333V350H377v125zm42 0h291V350H667zM335 350H42v125h293zM42 308h293V183H42zm625 0h291V183H667zm291 375V517H42v166zM42 142h293V17H42zM667 17v125h291V17z" horiz-adv-x="1000"/><glyph glyph-name="tabs" unicode="" d="m988 574-42 111c-9 24-32 40-58 40H697c-21 0-40-10-51-26-12 16-30 26-51 26H405c-21 0-39-10-51-26-11 16-30 26-51 26H112c-26 0-49-16-58-40L9 565c-6-16-9-32-9-49V38C0 3 28-25 63-25h875c34 0 62 28 62 63v500c0 13-5 26-12 36M697 683h191c9 0 16-5 20-13l26-70H682l-14 42 9 27c3 9 11 14 20 14m-292 0h190c9 0 17-5 20-14l23-69H390l-14 42 9 27c3 9 11 14 20 14M958 38c0-12-9-21-20-21H63c-12 0-21 9-21 21v478c0 12 2 23 6 34l45 120c3 8 10 13 19 13h191c9 0 17-5 20-14l32-96c3-9 11-15 20-15h563c5 0 10-2 13-5l1-3c1-2 3-4 5-6 1-2 1-4 1-6z" horiz-adv-x="1000"/><glyph glyph-name="tel-field" unicode="" d="M938 663H63c-35 0-63-28-63-63V100c0-34 28-62 63-62h875c34 0 62 28 62 62v500c0 35-28 63-62 63m20-563c0-11-9-21-20-21H63c-12 0-21 10-21 21v500c0 12 9 21 21 21h875c11 0 20-9 20-21zM498 290c-26 0-52 4-76 12-16 5-34 1-43-9l-45-34c-52 28-85 61-113 112l33 43c11 12 16 29 11 45-9 24-13 50-13 76 0 24-19 44-44 44h-81c-24 0-44-20-44-44 0-228 186-414 415-414 24 0 44 20 44 44v81c0 24-20 44-44 44m0-127c-206 0-373 167-371 375l84-3c0-30 5-60 14-89l20 7-23-11-42-56c-5-7-5-15-2-22 36-70 78-112 148-148 7-4 16-3 22 2l56 42c1 0 4 2 5 2 28-9 58-14 91-16z" horiz-adv-x="1000"/><glyph glyph-name="text-area" unicode="" d="M938 767H63c-35 0-63-28-63-63V-4c0-35 28-63 63-63h875c34 0 62 28 62 63v708c0 35-28 63-62 63M42-4v708c0 12 9 21 21 21h875c11 0 20-9 20-21V88L846-25H63c-12 0-21 9-21 21m896-21h-33l53 54V-4c0-12-9-21-20-21M249 628c-6 16-33 16-39 0L85 295c-4-11 1-23 12-27s23 1 27 12l42 112h127l42-112c3-8 11-13 19-13 3 0 5 0 8 1 10 4 16 16 12 27zm-68-195 48 129 48-129zm694-62c0 11-9 21-21 21s-21-10-21-21c0-35-28-63-62-63s-63 28-63 63v83c0 35 28 63 63 63s62-28 62-63c0-11 10-21 21-21s21 10 21 21c0 58-47 104-104 104s-104-46-104-104v-83c0-58 46-104 104-104s104 46 104 104M521 558c-24 0-45-8-63-21v84c0 11-9 21-20 21s-21-10-21-21V288c0-12 9-21 21-21s20 9 20 21c18-13 39-21 63-21 57 0 104 46 104 104v83c0 58-47 104-104 104m62-187c0-35-28-63-62-63s-63 28-63 63v83c0 35 28 63 63 63s62-28 62-63z" horiz-adv-x="1000"/><glyph glyph-name="text-field" unicode="" d="M938 663H63c-35 0-63-28-63-63V100c0-34 28-62 63-62h875c34 0 62 28 62 62v500c0 35-28 63-62 63m20-563c0-11-9-21-20-21H63c-12 0-21 10-21 21v500c0 12 9 21 21 21h875c11 0 20-9 20-21zM229 538c12 0 21 9 21 20s-9 21-21 21h-83c-12 0-21-9-21-21s9-20 21-20h21V163h-21c-12 0-21-10-21-21s9-21 21-21h83c12 0 21 9 21 21s-9 21-21 21h-21v375z" horiz-adv-x="1000"/><glyph glyph-name="thumbnails-down" unicode="" d="M792 663H208c-11 0-20-10-20-21V225c0-11 9-21 20-21h584c11 0 21 10 21 21v417c0 11-10 21-21 21m-21-417H229v375h542zM140 490c-8 8-22 8-30 0l-83-84c-8-8-8-21 0-29l83-83c4-4 10-6 15-6s11 2 15 6c8 8 8 21 0 29l-69 69 69 68c8 8 8 22 0 30m833-84-83 84c-8 8-22 8-30 0s-8-22 0-30l69-68-69-69c-8-8-8-21 0-29 4-4 10-6 15-6s11 2 15 6l83 83c8 8 8 21 0 29M292 163h-84c-11 0-20-10-20-21V58c0-11 9-20 20-20h84c11 0 21 9 21 20v84c0 11-10 21-21 21m-21-84h-42v42h42zm187 84h-83c-11 0-21-10-21-21V58c0-11 10-20 21-20h83c12 0 21 9 21 20v84c0 11-9 21-21 21m-20-84h-42v42h42zm187 84h-83c-12 0-21-10-21-21V58c0-11 9-20 21-20h83c12 0 21 9 21 20v84c0 11-9 21-21 21m-21-84h-41v42h41zm188 84h-84c-11 0-20-10-20-21V58c0-11 9-20 20-20h84c11 0 21 9 21 20v84c0 11-10 21-21 21m-21-84h-42v42h42z" horiz-adv-x="1000"/><glyph glyph-name="thumbnails-half" unicode="" d="M479 663H21c-12 0-21-10-21-21V58c0-11 9-20 21-20h458c12 0 21 9 21 20v584c0 11-9 21-21 21M458 79H42v542h416zm521 584h-83c-12 0-21-10-21-21v-84c0-11 9-20 21-20h83c12 0 21 9 21 20v84c0 11-9 21-21 21m-21-84h-41v42h41zm21-83h-83c-12 0-21-9-21-21v-83c0-12 9-21 21-21h83c12 0 21 9 21 21v83c0 12-9 21-21 21m-21-83h-41v41h41zm21-84h-83c-12 0-21-9-21-21v-83c0-11 9-21 21-21h83c12 0 21 10 21 21v83c0 12-9 21-21 21m-21-83h-41v42h41zm21-83h-83c-12 0-21-10-21-21V58c0-11 9-20 21-20h83c12 0 21 9 21 20v84c0 11-9 21-21 21m-21-84h-41v42h41zM813 663h-84c-11 0-21-10-21-21v-84c0-11 10-20 21-20h84c11 0 20 9 20 20v84c0 11-9 21-20 21m-21-84h-42v42h42zm21-83h-84c-11 0-21-9-21-21v-83c0-12 10-21 21-21h84c11 0 20 9 20 21v83c0 12-9 21-20 21m-21-83h-42v41h42zm21-84h-84c-11 0-21-9-21-21v-83c0-11 10-21 21-21h84c11 0 20 10 20 21v83c0 12-9 21-20 21m-21-83h-42v42h42zm21-83h-84c-11 0-21-10-21-21V58c0-11 10-20 21-20h84c11 0 20 9 20 20v84c0 11-9 21-20 21m-21-84h-42v42h42zM646 663h-83c-12 0-21-10-21-21v-84c0-11 9-20 21-20h83c11 0 21 9 21 20v84c0 11-10 21-21 21m-21-84h-42v42h42zm21-83h-83c-12 0-21-9-21-21v-83c0-12 9-21 21-21h83c11 0 21 9 21 21v83c0 12-10 21-21 21m-21-83h-42v41h42zm21-84h-83c-12 0-21-9-21-21v-83c0-11 9-21 21-21h83c11 0 21 10 21 21v83c0 12-10 21-21 21m-21-83h-42v42h42zm21-83h-83c-12 0-21-10-21-21V58c0-11 9-20 21-20h83c11 0 21 9 21 20v84c0 11-10 21-21 21m-21-84h-42v42h42z" horiz-adv-x="1000"/><glyph glyph-name="thumbnails-right" unicode="" d="M813 663H21c-12 0-21-10-21-21V58c0-11 9-20 21-20h792c11 0 20 9 20 20v584c0 11-9 21-20 21M792 79H42v542h750zm187 584h-83c-12 0-21-10-21-21v-84c0-11 9-20 21-20h83c12 0 21 9 21 20v84c0 11-9 21-21 21m-21-84h-41v42h41zm21-83h-83c-12 0-21-9-21-21v-83c0-12 9-21 21-21h83c12 0 21 9 21 21v83c0 12-9 21-21 21m-21-83h-41v41h41zm21-84h-83c-12 0-21-9-21-21v-83c0-11 9-21 21-21h83c12 0 21 10 21 21v83c0 12-9 21-21 21m-21-83h-41v42h41zm21-83h-83c-12 0-21-10-21-21V58c0-11 9-20 21-20h83c12 0 21 9 21 20v84c0 11-9 21-21 21m-21-84h-41v42h41z" horiz-adv-x="1000"/><glyph glyph-name="time-line" unicode="" d="M667 454h250c34 0 62 28 62 63v250c0 34-28 62-62 62H667c-35 0-63-28-63-62v-33l-54-55c-8 10-18 17-29 21v108c0 12-9 21-21 21s-21-9-21-21V700c-24-8-41-31-41-58s17-50 41-59V409c-11-4-21-12-29-21l-54 54v33c0 34-28 63-63 63H83c-34 0-62-29-62-63V225c0-34 28-62 62-62h250c35 0 63 28 63 62v33l54 55c8-10 18-18 29-22V117c-24-9-41-32-41-59s17-50 41-58v-108c0-12 10-21 21-21s21 9 21 21V0c11 4 21 11 29 21l54-55v-33c0-34 28-62 63-62h250c34 0 62 28 62 62v250c0 35-28 63-62 63H667c-35 0-63-28-63-63v-33l-54-54c-8 10-18 17-29 21v174c24 9 42 32 42 59s-18 50-42 59v174c11 4 21 12 29 21l54-54v-33c0-35 28-63 63-63M500 663c12 0 21-10 21-21 0-12-9-21-21-21s-21 9-21 21 10 21 21 21M360 281c-4-3-6-9-6-14v-42c0-11-9-21-21-21H83c-11 0-20 10-20 21v250c0 12 9 21 20 21h250c12 0 21-9 21-21v-42c0-5 2-10 6-14l69-69zM500 79c12 0 21-9 21-21 0-11-9-20-21-20s-21 9-21 20 10 21 21 21m140 48q6 6 6 15v41c0 12 9 21 21 21h250c11 0 21-9 21-21V-67c0-11-10-21-21-21H667c-12 0-21 10-21 21v42c0 5-2 11-6 15l-69 68zM500 329c-11 0-21 10-21 21 0 12 10 21 21 21s21-9 21-21-9-21-21-21m71 313 69 68q6 6 6 15v42c0 11 9 21 21 21h250c11 0 21-10 21-21V517c0-12-10-21-21-21H667c-12 0-21 9-21 21v41q0 9-6 15z" horiz-adv-x="1000"/><glyph glyph-name="toggle" unicode="" d="M229 829H63c-35 0-63-28-63-62V600c0-34 28-62 63-62h166c35 0 63 28 63 62v167c0 34-28 62-63 62m21-229c0-11-9-21-21-21H63c-12 0-21 10-21 21v167c0 11 9 21 21 21h166c12 0 21-10 21-21zm-62 104h-21v21c0 12-10 21-21 21s-21-9-21-21v-21h-21c-11 0-21-9-21-21s10-20 21-20h21v-21c0-12 9-21 21-21s21 9 21 21v21h21c11 0 20 9 20 20s-9 21-20 21m41-208H63c-35 0-63-28-63-63V267c0-35 28-63 63-63h166c35 0 63 28 63 63v166c0 35-28 63-63 63m21-229c0-12-9-21-21-21H63c-12 0-21 9-21 21v166c0 12 9 21 21 21h166c12 0 21-9 21-21zm-62 104h-21v21c0 11-10 21-21 21s-21-10-21-21v-21h-21c-11 0-21-9-21-21s10-21 21-21h21v-21c0-11 9-20 21-20s21 9 21 20v21h21c11 0 20 10 20 21s-9 21-20 21m41-208H63c-35 0-63-28-63-63V-67c0-34 28-62 63-62h166c35 0 63 28 63 62v167c0 35-28 63-63 63m21-230c0-11-9-21-21-21H63c-12 0-21 10-21 21v167c0 12 9 21 21 21h166c12 0 21-9 21-21zM188 38h-21v20c0 12-10 21-21 21s-21-9-21-21V38h-21c-11 0-21-10-21-21S93-4 104-4h21v-21c0-12 9-21 21-21s21 9 21 21v21h21c11 0 20 9 20 21s-9 21-20 21m208 625h583c12 0 21 9 21 20s-9 21-21 21H396c-12 0-21-9-21-21s9-20 21-20m583-292H396c-12 0-21-9-21-21s9-21 21-21h583c12 0 21 10 21 21s-9 21-21 21m0-333H396c-12 0-21-10-21-21s9-21 21-21h583c12 0 21 9 21 21s-9 21-21 21" horiz-adv-x="1000"/><glyph glyph-name="url" unicode="" d="M938 621H63c-35 0-63-28-63-63V142c0-35 28-63 63-63h875c34 0 62 28 62 63v416c0 35-28 63-62 63m20-479c0-12-9-21-20-21H63c-12 0-21 9-21 21v416c0 12 9 21 21 21h875c11 0 20-9 20-21zM318 454c-12 2-23-4-26-16l-26-106-38 89c-7 15-32 15-39 0l-38-89-27 106c-2 12-14 18-25 16-11-3-18-15-15-26l42-166c2-9 9-15 18-16 10-1 18 4 21 13l43 101 44-101c3-8 11-13 19-13h2c8 1 16 7 18 16l42 166c3 11-4 23-15 26m291 0c-11 2-22-4-25-16l-27-106-38 89c-6 15-32 15-38 0l-38-89-27 106c-3 12-14 18-25 16-11-3-18-15-15-26l41-166c3-9 10-15 19-16s17 4 21 13l43 101 43-101c4-8 11-13 20-13h1c9 1 17 7 19 16l41 166c3 11-4 23-15 26m292 0c-11 2-23-4-25-16l-27-106-38 89c-7 15-32 15-38 0l-39-89-26 106c-3 12-14 18-25 16-12-3-18-15-16-26l42-166c2-9 10-15 19-16s17 4 20 13l44 101 43-101c3-8 11-13 19-13h2c9 1 16 7 18 16l42 166c3 11-4 23-15 26" horiz-adv-x="1000"/><glyph glyph-name="t-letter" unicode="" d="M647-108H354c-11 0-21 9-21 20s10 21 21 21c35 0 63 28 63 63v646H146c-35 0-63-28-63-63 0-11-9-21-20-21s-21 10-21 21v209c0 11 9 20 21 20h875c11 0 20-9 20-20V579c0-11-9-21-20-21s-21 10-21 21c0 35-28 63-63 63H583V-4c0-35 28-63 63-63h1c11 0 21-9 21-21s-10-20-21-20M438-67h125c-13 18-21 39-21 63v667c0 11 9 20 21 20h291c24 0 45-7 63-20v104H83V663c18 13 39 20 63 20h292c11 0 20-9 20-20V-4c0-24-7-45-20-63" horiz-adv-x="1000"/><glyph glyph-name="wordpress" unicode="" d="M108 346c0 54 13 108 34 158L329-8c-66 29-121 79-162 141-42 63-59 134-59 213m659 17v-21c0-8-4-17-4-25-5-9-5-17-5-21s-8-13-12-29c-4-17-8-25-8-29l-38-130-146 421c17 0 29 4 46 4 8 0 13 5 13 9 4 4 0 12 0 16-5 5-9 9-13 9l-108-9c-25 0-59 0-104 5-5 0-9 0-13-5l-4-4v-8c0-4 0-4 4-8s4-5 8-5l42-4 63-166-88-259-142 425c17 0 30 4 46 4 9 0 13 5 13 9 4 4 0 12 0 16-4 5-9 9-17 5l-104-5h-25c37 55 83 96 142 130s120 45 187 45c50 0 100-8 142-29s87-41 121-75h-5c-20 0-33-8-45-21-13-12-21-29-21-50v-25c0-4 0-8 4-12 0-4 4-8 4-13s4-8 4-12c4-4 4-8 9-13 0 0 4-4 8-12 4-4 4-8 8-13 25-20 38-58 38-95m-259-55L629-21s0-4 4-4c-41-17-87-21-129-21-37 0-75 4-112 17zm338 225c33-58 50-120 50-187 0-71-17-138-54-196S758 42 700 8l121 346c21 59 29 104 29 142-4 12-4 25-4 37M321 767c58 25 117 37 179 37s121-12 179-37 104-59 146-96c42-42 75-92 96-146 25-58 37-117 37-179s-12-121-37-179c-25-59-58-104-96-146-42-42-92-75-146-96s-116-38-179-38-121 13-179 38-104 58-146 96c-42 42-75 92-96 146-25 54-37 116-37 179s12 121 37 179 59 104 96 146 92 71 146 96m8-825c54-25 113-34 171-34s117 13 171 34c54 25 100 54 142 91 37 38 70 88 91 142 25 54 34 113 34 171s-13 117-34 171c-25 54-54 100-91 141-38 38-88 71-142 92-54 25-113 33-171 33s-117-12-171-37-100-54-137-92-71-87-96-141-33-113-33-171 12-117 33-171 54-100 92-142c41-33 87-62 141-87" horiz-adv-x="1000"/><glyph glyph-name="text" unicode="" d="M979 642H21c-12 0-21 9-21 21s9 20 21 20h958c12 0 21-9 21-20s-9-21-21-21M688 517H21c-12 0-21 9-21 21s9 20 21 20h667c11 0 20-9 20-20s-9-21-20-21m291-125H21c-12 0-21 9-21 21s9 20 21 20h958c12 0 21-9 21-20s-9-21-21-21M688 267H21c-12 0-21 9-21 21s9 20 21 20h667c11 0 20-9 20-20s-9-21-20-21m291-125H21c-12 0-21 9-21 21s9 20 21 20h958c12 0 21-9 21-20s-9-21-21-21M688 17H21C9 17 0 26 0 38s9 20 21 20h667c11 0 20-9 20-20s-9-21-20-21" horiz-adv-x="1000"/><glyph glyph-name="anchor" unicode="" d="M500-154c-10 0-19 8-20 17-8 7-38 16-61 24-79 24-196 61-245 167h-28c-3 0-6 1-9 2-10 5-95 50-95 269 0 9 5 16 13 20 7 3 16 1 22-5 102-101 204-163 205-164 9-5 12-17 8-27l-14-28c65-62 108-67 120-67 16 0 21 24 21 25v392h-63c-20-26-51-42-83-42-58 0-104 47-104 105s46 104 104 104c32 0 63-16 83-42h63v32c-27 24-42 57-42 93 0 69 56 125 125 125s125-56 125-125c0-36-15-69-42-93v-32h63c20 26 51 42 83 42 58 0 104-47 104-104s-46-105-104-105c-32 0-63 16-83 42h-63V75c1 0 6-21 21-21 12 0 55 5 121 67l-14 28c-5 10-2 22 7 27 2 1 104 63 205 164 6 6 15 8 23 5 7-4 12-11 12-20 0-219-85-264-95-269-3-1-6-2-9-2h-28C777-52 660-89 582-113c-24-8-54-17-61-24-2-9-11-17-21-17M152 96h36c8 0 16-5 19-13C245-15 357-50 431-74c29-9 53-16 69-26 16 10 40 17 69 26 74 24 186 59 224 157 3 8 11 13 20 13h35c12 9 57 50 67 179-68-62-130-105-159-124l13-25c4-8 2-17-4-24-58-57-115-89-161-89-41 0-59 38-62 59v420c0 11 9 21 21 21h94c8 0 15-4 18-11 12-19 32-31 54-31 35 0 63 28 63 63s-28 62-63 62c-22 0-42-12-54-31-3-7-10-11-18-11h-94c-12 0-21 10-21 21v63c0 7 3 13 8 17 21 16 33 40 33 66 0 46-37 83-83 83s-83-37-83-83c0-26 12-50 33-66 5-4 8-10 8-17v-63c0-11-9-21-20-21h-95c-8 0-15 4-18 11-12 19-32 31-54 31-35 0-63-28-63-62s28-63 63-63c22 0 42 12 54 31 3 7 10 11 18 11h95c11 0 20-10 20-21V75c-3-24-21-62-62-62-46 0-103 32-161 89-6 7-8 16-4 24l13 25c-29 19-91 62-159 124 10-129 54-170 67-179" horiz-adv-x="1000"/><glyph glyph-name="bullet-list" unicode="" d="M979 663H271c-12 0-21 9-21 20s9 21 21 21h708c12 0 21-9 21-21s-9-20-21-20m0-334H271c-12 0-21 10-21 21s9 21 21 21h708c12 0 21-9 21-21s-9-21-21-21m0-333H271c-12 0-21 9-21 21s9 21 21 21h708c12 0 21-10 21-21s-9-21-21-21M104 246C47 246 0 293 0 350s47 104 104 104 104-47 104-104-46-104-104-104m0 167c-34 0-62-28-62-63s28-62 62-62 63 28 63 62-28 63-63 63m0-501C47-88 0-41 0 17s47 104 104 104S208 74 208 17 162-88 104-88m0 167c-34 0-62-28-62-62s28-63 62-63 63 28 63 63-28 62-63 62m0 500C47 579 0 626 0 683s47 105 104 105 104-47 104-105-46-104-104-104m0 167c-34 0-62-28-62-63s28-62 62-62 63 28 63 62-28 63-63 63" horiz-adv-x="1000"/><glyph glyph-name="code" unicode="" d="M313-129c-3 0-6 0-8 1-11 5-16 17-12 27l375 917c5 11 17 16 27 12 11-5 16-17 12-28L332-116c-3-8-11-13-19-13M729 38c-5 0-9 1-13 5-9 7-10 20-3 29l239 278-239 278c-7 9-6 22 3 30 8 7 22 6 29-3l250-291c7-8 7-20 0-27L745 45c-4-5-10-7-16-7m-458 0c-6 0-12 2-16 7L5 337c-7 7-7 19 0 27l250 291c8 9 21 10 29 3 9-8 10-21 3-30L48 350 287 72c7-9 6-22-3-29-3-4-8-5-13-5" horiz-adv-x="1000"/><glyph glyph-name="favorite" unicode="" d="M500-150C224-150 0 74 0 350s224 500 500 500 500-224 500-500-224-500-500-500m0 958C247 808 42 603 42 350s205-458 458-458S958 97 958 350 753 808 500 808M688 58c-4 0-8 2-12 4L500 179 324 62c-7-5-17-5-24 0s-10 14-8 23l59 215-176 138c-7 5-10 15-7 23s11 14 20 14h215l78 195c6 16 32 16 38 0l78-195h216c8 0 16-6 19-14s0-18-7-23L649 300l59-215c2-9-1-18-8-23-4-2-8-4-12-4M500 225q6 0 12-3l141-95-48 176c-2 8 1 17 7 22l140 108H583c-8 0-16 6-19 13l-64 160-64-159c-3-8-11-14-19-14H248l140-108c6-5 9-14 7-22l-48-176 141 95q6 3 12 3" horiz-adv-x="1000"/><glyph glyph-name="google-maps" unicode="" d="M750 100c-10 0-18 7-20 17-33 162-91 252-137 324-12 18-23 35-33 52-18 26-30 57-35 90-3 14-4 26-4 38 0 126 103 229 229 229s229-103 229-229c0-12-1-24-4-38-5-33-17-64-36-91-8-16-20-33-31-51-47-72-105-162-138-324-1-10-10-17-20-17m0 708c-103 0-187-84-187-187q0-13.5 3-30c4-29 14-54 29-76 10-17 21-34 33-52 39-61 87-136 122-255 35 119 83 193 123 255 11 18 22 35 31 51 16 23 26 48 30 76 3 12 4 22 4 31 0 103-85 187-188 187m0-291c-57 0-104 46-104 104s47 104 104 104 104-47 104-104-47-104-104-104m0 166c-34 0-62-28-62-62s28-63 62-63 63 28 63 63-28 62-63 62m83-833H125C68-150 21-103 21-46v667c0 57 47 104 104 104h417c11 0 21-9 21-21s-10-21-21-21H125c-34 0-62-28-62-62V-46c0-34 28-62 62-62h708c35 0 63 28 63 62v521c0 12 9 21 21 21s21-9 21-21V-46c0-57-47-104-105-104M83-108c-5 0-10 2-14 6-8 8-8 21 0 29l520 521c9 8 22 8 30 0s8-21 0-29L98-102q-6-6-15-6m792 0c-5 0-11 2-15 6L464 294c-8 8-8 21 0 29s22 8 30 0L890-73c8-8 8-21 0-29-4-4-10-6-15-6M208 475c-46 0-83 37-83 83s37 84 83 84 84-38 84-84-38-83-84-83m0 125c-23 0-41-19-41-42s18-41 41-41 42 18 42 41-19 42-42 42m84 0h-84c-11 0-20 9-20 21s9 21 20 21h84c11 0 21-10 21-21s-10-21-21-21m-84-292c-71 0-104 49-104 84 0 39 37 65 110 78-3 8-6 16-6 26 0 11 10 21 21 21s21-10 21-21c0-10 9-19 23-32 18-17 40-39 40-72 0-74-51-84-105-84m37 125c-73-10-99-28-99-41 0-9 11-42 62-42 60 0 63 14 63 42 0 14-10 25-26 41" horiz-adv-x="1000"/><glyph glyph-name="image" unicode="" d="m42 83 212 300c9 9 21 13 34 5l137-96 192 233c8 13 29 13 37 0L958 71v608H42zm896-66L629 475 446 250c-8-8-21-12-29-4l-134 96L54 17zM21-29C8-29-4-21-4-8v708c0 17 12 25 25 25h958c13 0 21-8 21-21V-4c0-13-8-21-21-21H21zm246 571c0 25-21 50-46 50s-50-21-50-50 21-50 46-50 50 25 50 50m46 0c0-50-42-96-92-96s-96 46-96 96 42 96 92 96 96-42 96-96" horiz-adv-x="1000"/><glyph glyph-name="photo-library" unicode="" d="M729 142H21c-12 0-21 9-21 21v625c0 11 9 20 21 20h708c12 0 21-9 21-20V163c0-12-9-21-21-21M42 183h666v584H42zm687-41c-7 0-15 4-18 11L499 577 351 319c-3-6-8-10-15-10-6-1-13 1-17 5L212 421 38 151c-6-9-19-12-28-6-10 6-13 19-7 29l188 291c3 6 9 9 15 10s13-2 17-6l106-106 153 268c4 7 11 11 19 11 7 0 14-5 18-12l229-458c5-10 1-23-9-28-3-2-7-2-10-2M229 517c-57 0-104 46-104 104s47 104 104 104 104-47 104-104-46-104-104-104m0 166c-34 0-62-28-62-62s28-63 62-63 63 28 63 63-28 62-63 62M813 58H104c-11 0-21 10-21 21v84c0 11 10 20 21 20s21-9 21-20v-63h667v583h-42c-11 0-21 10-21 21s10 21 21 21h63c11 0 20-9 20-21V79c0-11-9-21-20-21m83-83H188c-12 0-21 9-21 21v83c0 12 9 21 21 21s20-9 20-21V17h667v583h-62c-12 0-21 9-21 21s9 21 21 21h83c11 0 21-10 21-21V-4c0-12-10-21-21-21m83-83H271c-12 0-21 9-21 20v84c0 11 9 21 21 21s21-10 21-21v-63h666v542h-62c-12 0-21 9-21 21s9 21 21 21h83c12 0 21-10 21-21V-88c0-11-9-20-21-20" horiz-adv-x="1000"/><glyph glyph-name="woocommerce" unicode="" d="M896 642H104C47 642 0 595 0 538V246c0-58 47-104 104-104h403l128-80c3-3 7-4 11-4 5 0 11 3 15 7 7 7 8 18 2 26l-34 51h267c57 0 104 46 104 104v292c0 57-47 104-104 104m62-396c0-35-28-63-62-63H590c-7 0-14-4-18-11s-3-15 1-21l2-3-51 32c-4 2-8 3-11 3H104c-34 0-62 28-62 63v292c0 34 28 62 62 62h792c34 0 62-28 62-62zM421 571c-47-60-61-198-65-273-23 43-41 115-51 156-11 49-15 63-34 63-17 0-19 0-85-144-10-21-22-47-32-68-6 41-12 99-18 142-4 36-8 69-11 93-2 12-12 20-24 18-11-1-19-12-17-23 3-24 7-57 11-93 26-217 27-217 51-217 17 0 18 0 78 131 13 28 29 62 41 88 23-96 50-192 101-217 3-1 6-2 9-2 4 0 8 1 11 3 6 4 10 11 10 18 0 87 16 245 58 300 7 9 5 22-4 29s-22 5-29-4m166-54c-54 0-109-63-125-142-9-50-1-96 22-123 14-18 33-27 54-27 55 0 109 62 125 142 9 49 1 95-22 123-14 17-33 27-54 27m35-142c-13-64-54-108-84-108-9 0-16 3-22 11-15 18-20 52-13 89 13 64 54 108 84 108 9 0 16-4 22-11 15-18 20-52 13-89m215 142c-54 0-109-63-125-142-9-50-1-96 22-123 14-18 33-27 54-27 55 0 109 62 125 142 9 49 1 95-22 123-14 17-33 27-54 27m35-142c-13-64-54-108-84-108-9 0-16 3-22 11-15 18-20 52-13 89 13 64 54 108 84 108 9 0 16-4 22-11 15-18 20-52 13-89" horiz-adv-x="1000"/><glyph glyph-name="youtube" unicode="" d="M500-19c-49 0-98 2-146 6L133 7C57 13 0 76 0 152v396c0 76 57 139 133 145l221 19c97 9 195 9 292 0l221-19c76-6 133-69 133-145V152c0-76-57-139-133-145L646-13c-48-4-97-6-146-6m0 696c-48 0-95-2-143-6l-220-19c-54-5-95-50-95-104V152c0-54 41-99 95-104l220-19c95-8 191-8 286 0l220 19c54 5 95 50 95 104v396c0 54-41 99-95 104l-220 19c-48 4-95 6-143 6M396 142c-4 0-7 0-10 2-7 4-11 11-11 18v375c0 8 4 15 11 19 7 3 15 3 21-1l292-188c6-3 9-10 9-17s-3-14-9-18L407 145c-3-2-7-3-11-3m21 357V201l232 149z" horiz-adv-x="1000"/><glyph glyph-name="flip-box" unicode="" d="M813 788H188c-12 0-21-10-21-21V-67c0-11 9-21 21-21h625c11 0 20 10 20 21v834c0 11-9 21-20 21M792-46H208v792h584zm207 264c-4 11-15 17-26 13l-35-11c42 86 44 194-32 271-8 8-22 8-30 0s-8-21 0-29c64-65 60-159 21-232l-16 47c-4 11-15 17-26 13s-17-15-13-26l29-89 1-1c1-2 1-3 2-4l3-3c0-1 1-1 1-2h1c1-1 2-1 3-2 2-1 6-2 9-2 2 0 4 0 6 1l89 30c11 3 17 15 13 26M129 483c0 1-1 1-1 2s-1 2-2 4c-1 1-2 1-2 2-1 1-1 2-2 2-1 1-1 1-2 1s-1 1-1 1c-1 0-2 0-2 1-2 0-3 1-5 1h-7c-1-1-2-1-2-1l-89-29c-11-4-17-16-13-27 4-10 16-16 27-13l34 12c-42-86-44-195 33-272 4-4 9-6 14-6q9 0 15 6c8 8 8 21 0 30-64 64-59 158-21 231l16-46c3-9 11-15 20-15 2 0 4 1 6 1 11 4 17 16 14 27zm184 13h375c11 0 20 9 20 21s-9 21-20 21H313c-12 0-21-10-21-21s9-21 21-21m0-125h375c11 0 20 9 20 21s-9 21-20 21H313c-12 0-21-10-21-21s9-21 21-21m0-125h375c11 0 20 9 20 21s-9 21-20 21H313c-12 0-21-10-21-21s9-21 21-21m0-125h166c12 0 21 9 21 21s-9 21-21 21H313c-12 0-21-10-21-21s9-21 21-21" horiz-adv-x="1000"/><glyph glyph-name="settings" unicode="" d="M662-117c-14 0-27 3-40 10-21 12-36 33-40 57-4 21-23 35-45 33-24-3-50-3-74 0-22 2-41-12-45-33-4-24-19-45-40-57-22-12-48-13-72-3-38 16-75 37-108 62-20 15-32 38-32 64-1 24 10 48 29 64 16 13 18 36 6 54-15 20-27 42-38 65-8 20-30 29-50 22-23-9-49-6-70 6-21 13-36 35-39 60-3 21-4 42-4 63s1 42 4 63c3 25 18 47 39 60 21 12 47 15 70 6 20-7 42 3 50 22 11 23 23 45 38 65 13 18 10 41-6 55-19 15-30 39-29 63 0 26 12 49 32 64 33 25 70 46 108 62 23 10 50 9 72-3 21-12 36-33 40-57 4-21 23-35 45-33 24 3 50 3 74 0 22-2 41 12 45 33 4 24 19 45 40 57 22 12 49 13 72 3 38-16 75-37 108-62 20-15 32-38 33-64 0-24-11-48-30-63-16-14-18-37-5-55 14-20 27-42 37-65 9-19 31-29 50-22 23 9 49 6 70-6 22-13 36-35 39-60 3-21 4-42 4-63s-1-42-4-63c-3-25-17-47-39-60-21-12-47-15-70-6-19 7-42-2-50-22-11-23-23-45-38-65-12-18-10-41 6-54 19-16 30-40 29-64 0-26-12-49-32-64-33-25-70-46-108-62-10-5-21-7-32-7M542 25c40 0 74-28 81-68 2-12 9-22 19-27 11-6 24-7 36-2q52.5 22.5 99 57c10 8 16 19 16 31s-5 24-14 31c-34 28-39 75-13 111 13 18 24 38 33 58 17 39 62 59 102 44 12-4 24-3 35 3 10 7 17 17 19 30q3 28.5 3 57c0 28.5-1 38-3 57-2 13-9 24-19 30-11 6-23 7-34 3-40-15-86 5-103 44-9 20-20 40-33 58-26 36-21 83 13 111 9 7 14 19 14 31s-6 23-16 31q-46.5 34.5-99 57c-12 5-25 4-36-2-10-5-17-16-19-27-7-43-46-72-90-67q-33 3-66 0c-44-5-83 24-90 67-2 11-9 22-19 27-11 6-24 7-36 2q-52.5-22.5-99-57c-10-8-15-19-16-31 0-12 5-24 14-31 34-28 39-75 13-111-12-18-24-38-33-58-17-39-62-59-102-44-12 4-24 3-34-3-11-6-18-17-20-30q-3-28.5-3-57c0-28.5 1-38 3-57 2-13 9-23 20-30 10-6 22-7 33-3 41 15 86-4 103-44 9-20 21-40 33-57 26-36 21-84-13-112-9-7-14-18-14-30 1-13 6-24 16-32q46.5-34.5 99-57c12-5 25-4 36 2 10 6 17 16 19 27 7 43 46 72 90 67q33-3 66 0c3 0 6 1 9 1m-42 117c-115 0-208 93-208 208s93 208 208 208 208-93 208-208-93-208-208-208m0 375c-92 0-167-75-167-167s75-167 167-167 167 75 167 167-75 167-167 167" horiz-adv-x="1000"/><glyph glyph-name="headphones" unicode="" d="M1036 189v143c0 275-232 518-500 518S36 607 36 332V189A175 175 0 0 1 0 82a247 247 0 0 1 232-232 55 55 0 0 1 54 54v321a55 55 0 0 1-54 54 256 256 0 0 1-161-54v107a503 503 0 0 0 179 375v-89a20 20 0 0 1 11-18 16 16 0 0 1 18 4 334 334 0 0 0 253 100 329 329 0 0 0 254-100 19 19 0 0 1 14-8h7a20 20 0 0 1 11 18v93a491 491 0 0 0 178-375V225a256 256 0 0 1-160 54 55 55 0 0 1-54-54V-96a55 55 0 0 1 54-54 247 247 0 0 1 232 232 154 154 0 0 1-32 107M250-96a18 18 0 0 0-36 0v321a18 18 0 0 0 36 0zm-71 335v-343A210 210 0 0 0 36 82c0 86 68 139 143 157m607 486v-68a390 390 0 0 1-250 82 390 390 0 0 1-250-82v75a454 454 0 0 0 250 82 445 445 0 0 0 250-82zm35-500a18 18 0 0 0 36 0V-96a18 18 0 0 0-36 0zm72-329v343c78-18 143-68 143-157a214 214 0 0 0-143-186" horiz-adv-x="1069"/><glyph glyph-name="testimonial" unicode="" d="M155-150a13 13 0 0 0-10 3 17 17 0 0 0-7 21l93 252h-83A149 149 0 0 0 0 274v428a149 149 0 0 0 148 148h707a149 149 0 0 0 148-148V271a149 149 0 0 0-148-149H507L166-150zm-7 966A115 115 0 0 1 35 702V271a115 115 0 0 1 113-114h111a18 18 0 0 0 13-7 26 26 0 0 0 4-17L193-85l297 238a13 13 0 0 0 10 4h355a115 115 0 0 1 114 114v434a115 115 0 0 1-114 114z" horiz-adv-x="1003"/><glyph glyph-name="counter-circle" unicode="" d="M321 488c-8 0-13 0-17-5l-62-91c-4-9-4-17 4-21s17-4 21 4l33 50V229c0-8 8-16 17-16 8 0 16 8 16 16v242c0 8-4 12-12 17m150 0c-42 0-75-34-75-75 0-9 8-17 17-17s16 8 16 17c0 25 21 45 46 45s46-20 46-45v-9c0-8-4-21-8-29L404 238c-4-5-4-13 0-17s9-8 13-8h121c8 0 16 8 16 16s-8 17-16 17h-92l87 112c13 13 17 30 17 46v9c-4 41-37 75-79 75m287-75c0 41-33 75-75 75s-75-34-75-75c0-9 9-17 17-17s17 8 17 17c0 25 21 45 46 45s45-20 45-45-20-46-45-46c-9 0-17-9-17-17s8-17 17-17c25 0 45-20 45-45s-20-46-45-46-46 21-46 46c0 8-9 16-17 16s-17-8-17-16c0-42 34-75 75-75s75 33 75 75c0 25-12 45-29 62 17 13 29 38 29 63M500 829c263 0 479-216 479-479S763-129 500-129 21 88 21 350c0 92 25 183 79 263 8 8 21 12 29 4 9-4 13-17 4-29-45-71-70-150-70-238C63 108 258-88 500-88s438 196 438 438-196 438-438 438c-12 0-21 8-21 20s9 21 21 21" horiz-adv-x="1000"/></font>
</defs>
</svg>
